<?xml version="1.0" standalone="no"?>
<!DOCTYPE svg PUBLIC "-//W3C//DTD SVG 1.1//EN" "http://www.w3.org/Graphics/SVG/1.1/DTD/svg11.dtd" >
<svg xmlns="http://www.w3.org/2000/svg" xmlns:xlink="http://www.w3.org/1999/xlink" version="1.1">
<metadata>
Created by FontForge 20201107 at Fri Sep 10 18:37:55 2021
 By 
Copyright 2020 The Jost Project Authors (https://github.com/indestructible-type/Jost)
</metadata>
<defs>
<font id="Jost-Medium" horiz-adv-x="600" >
  <font-face 
    font-family="Jost Medium"
    font-weight="500"
    font-stretch="normal"
    units-per-em="1000"
    panose-1="0 0 0 0 0 0 0 0 0 0"
    ascent="800"
    descent="-200"
    x-height="460"
    cap-height="700"
    bbox="-132 -356 1609 1035"
    underline-thickness="50"
    underline-position="-125"
    unicode-range="U+000D-FF19"
  />
<missing-glyph horiz-adv-x="500" 
 />
    <glyph glyph-name=".notdef" horiz-adv-x="500" 
 />
    <glyph glyph-name="uni0000" horiz-adv-x="300" 
 />
    <glyph glyph-name="uni0000" horiz-adv-x="300" 
 />
    <glyph glyph-name="uni000D" unicode="&#xd;" horiz-adv-x="300" 
 />
    <glyph glyph-name="space" unicode=" " horiz-adv-x="300" 
 />
    <glyph glyph-name="exclam" unicode="!" horiz-adv-x="318" 
d="M91 700l25 -487h85l25 487h-135zM88 49q0 -28 20.5 -48t50.5 -20t50.5 20t20.5 48q0 29 -20.5 48t-50.5 19t-50.5 -19t-20.5 -48z" />
    <glyph glyph-name="quotedbl" unicode="&#x22;" horiz-adv-x="486" 
d="M120 700l-47 -307h72l96 307h-121zM313 700l-48 -307h73l96 307h-121z" />
    <glyph glyph-name="numbersign" unicode="#" horiz-adv-x="630" 
d="M75 429h138l19 2h197l20 -2h146v87h-520v-87zM35 189h520v87h-126l-24 -2h-212l-23 2h-135v-87zM463 700l-54 -218l-2 -22l-52 -212l-8 -21l-54 -227h97l170 700h-97zM240 700l-170 -700h98l55 226l2 21l52 215l8 23l53 215h-98z" />
    <glyph glyph-name="dollar" unicode="$" horiz-adv-x="597" 
d="M260 818l3 -162h89l2 162h-94zM263 54l-3 -166h94l-2 166h-89zM444 504l92 57q-17 37 -47.5 71t-75.5 56t-109 22q-63 0 -113 -24t-78.5 -64t-28.5 -89q0 -50 18 -85t46 -59.5t59.5 -40t57.5 -24.5q40 -15 75.5 -32t58 -41.5t22.5 -62.5q0 -30 -11.5 -51.5t-35 -33
t-59.5 -11.5q-40 0 -72 17t-57.5 49.5t-48.5 77.5l-91 -59q22 -54 61 -96t91.5 -66.5t111.5 -24.5q75 0 127.5 24.5t80 70.5t27.5 108q0 47 -15.5 81.5t-42 59t-58 41.5t-61.5 28q-42 16 -79 32t-59.5 38t-22.5 56q0 26 10.5 44.5t32.5 28.5t57 10q34 0 59 -15t44 -39.5
t34 -53.5z" />
    <glyph glyph-name="percent" unicode="%" horiz-adv-x="819" 
d="M30 544q0 -47 21.5 -85.5t60.5 -61.5t88 -23q51 0 89.5 23t60 61.5t21.5 85.5t-21.5 85.5t-60 61.5t-89.5 23q-49 0 -88 -23t-60.5 -61.5t-21.5 -85.5zM123 544q0 23 9.5 42t27 30t40.5 11q25 0 42 -11t27 -30t10 -42q0 -22 -10 -41.5t-27 -31t-42 -11.5
q-23 0 -40.5 11.5t-27 31t-9.5 41.5zM448 157q0 -47 21.5 -86t60.5 -61.5t88 -22.5q51 0 89 22.5t60 61.5t22 86t-22 85.5t-60 61.5t-89 23q-49 0 -88 -23t-60.5 -61.5t-21.5 -85.5zM540 157q0 23 9.5 41.5t27 30t41.5 11.5q25 0 42 -11.5t26.5 -30.5t9.5 -41t-9.5 -41.5
t-26.5 -31t-42 -11.5q-24 0 -41.5 11.5t-27 31t-9.5 41.5zM598 700l-485 -700h108l485 700h-108z" />
    <glyph glyph-name="ampersand" unicode="&#x26;" horiz-adv-x="706" 
d="M223 379l337 -379h127l-370 415q-34 39 -60.5 69.5t-26.5 62.5q0 33 20.5 54.5t58.5 21.5q25 0 42.5 -10.5t27 -27.5t9.5 -39q0 -31 -31.5 -64.5t-87.5 -63.5q-20 -10 -49.5 -23t-61 -30.5t-58 -42t-43.5 -58.5t-17 -79q0 -60 33 -104.5t86 -68t114 -23.5q69 0 128 25
t109 65.5t92.5 91t79.5 101.5l-78 54q-33 -48 -70 -91.5t-77.5 -77t-83.5 -53.5t-89 -20q-38 0 -67 14t-45.5 38.5t-16.5 56.5q0 35 17.5 59.5t45 42.5t58.5 33t58 32q38 23 67 45t49 45t30.5 48t10.5 54q0 42 -21 78.5t-61.5 60t-98.5 23.5q-57 0 -99.5 -21.5t-66 -58.5
t-23.5 -83q0 -37 17.5 -68t41.5 -56.5t43 -47.5z" />
    <glyph glyph-name="quotesingle" unicode="'" horiz-adv-x="294" 
d="M120 700l-47 -307h72l96 307h-121z" />
    <glyph glyph-name="parenleft" unicode="(" horiz-adv-x="323" 
d="M199 780q-60 -112 -89 -237t-29 -253q0 -127 29 -252t89 -238h100q-52 113 -78 238t-26 252q0 128 26 253t78 237h-100z" />
    <glyph glyph-name="parenright" unicode=")" horiz-adv-x="323" 
d="M124 -200q60 113 88.5 238t28.5 252q0 128 -28.5 253t-88.5 237h-100q53 -112 78.5 -237t25.5 -253q0 -127 -25.5 -252t-78.5 -238h100z" />
    <glyph glyph-name="asterisk" unicode="*" horiz-adv-x="592" 
d="M482 601l-195 -83l19 -58l206 48zM460 347l-140 160l-48 -36l109 -181zM212 290l108 181l-48 36l-140 -160zM80 508l207 -48l19 58l-196 83zM247 700l19 -211h60l19 211h-98z" />
    <glyph glyph-name="plus" unicode="+" horiz-adv-x="639" 
d="M65 208h509v106h-509v-106zM263 516v-511h113v511h-113z" />
    <glyph glyph-name="comma" unicode="," horiz-adv-x="314" 
d="M137 110l-88 -259l80 -22l117 250z" />
    <glyph glyph-name="hyphen" unicode="-" horiz-adv-x="215" 
d="M5 189h205v97h-205v-97z" />
    <glyph glyph-name="period" unicode="." horiz-adv-x="309" 
d="M84 51q0 -28 20.5 -49t50.5 -21t50 21t20 49q0 29 -20 49.5t-50 20.5t-50.5 -20.5t-20.5 -49.5z" />
    <glyph glyph-name="slash" unicode="/" horiz-adv-x="553" 
d="M431 700l-416 -850h109l414 850h-107z" />
    <glyph glyph-name="zero" unicode="0" horiz-adv-x="625" 
d="M156 350q0 56 11 103t31.5 81t49.5 52.5t65 18.5t64.5 -18.5t49 -52.5t31.5 -81t11 -103t-11 -103t-31.5 -81t-49 -52.5t-64.5 -18.5t-65 18.5t-49.5 52.5t-31.5 81t-11 103zM40 350q0 -109 34.5 -190t96 -126t142.5 -45q82 0 143 45t95 126t34 190t-34 190t-95 126
t-143 45q-81 0 -142.5 -45t-96 -126t-34.5 -190z" />
    <glyph glyph-name="one" unicode="1" horiz-adv-x="474" 
d="M75 536l163 45v-581h116v711l-279 -63v-112z" />
    <glyph glyph-name="two" unicode="2" horiz-adv-x="604" 
d="M20 0h534v110h-303l198 195q43 40 70 91t27 106q0 35 -15 72t-44.5 68t-74.5 50.5t-106 19.5q-79 0 -135 -33.5t-84.5 -92t-28.5 -133.5h117q0 46 15.5 81t44.5 53.5t69 18.5q29 0 51 -9.5t37.5 -25.5t23 -35.5t7.5 -39.5q0 -28 -9 -53t-27 -50t-43 -52z" />
    <glyph glyph-name="three" unicode="3" horiz-adv-x="576" 
d="M262 343q74 0 131.5 22t90.5 63t33 94q0 52 -25.5 94.5t-73.5 68.5t-116 26q-64 0 -113 -25.5t-76.5 -69.5t-27.5 -102h111q0 42 31 69.5t76 27.5q32 0 53 -12t31.5 -33.5t10.5 -49.5q0 -22 -9.5 -42t-27 -35.5t-42.5 -24t-57 -8.5v-63zM297 -12q72 0 126 25t84 70
t30 105q0 52 -21 89.5t-58.5 61.5t-87.5 35t-108 11v-67q36 0 64.5 -8t49 -23t31.5 -37t11 -50q0 -35 -14.5 -59.5t-41.5 -37.5t-63 -13q-35 0 -63.5 13.5t-45 38.5t-16.5 58h-119q0 -43 17 -81.5t48.5 -68t76 -46t100.5 -16.5z" />
    <glyph glyph-name="four" unicode="4" horiz-adv-x="629" 
d="M18 134h576v102h-143l-17 -8h-243l180 261v-302l-8 -11v-176h121v700h-71z" />
    <glyph glyph-name="five" unicode="5" horiz-adv-x="597" 
d="M557 228q0 71 -28.5 123t-76.5 81t-106 29q-29 0 -57 -6t-54 -19l44 160h271v104h-360l-95 -385q36 22 66.5 34t60 16.5t60.5 4.5q40 0 74 -16t54 -46t20 -73q0 -42 -17.5 -72.5t-50.5 -47t-80 -16.5q-33 0 -66.5 13.5t-61.5 36t-49 50.5l-70 -86q27 -33 63 -61.5
t85.5 -45.5t113.5 -17q51 0 97 14.5t83 44t58.5 74.5t21.5 106z" />
    <glyph glyph-name="six" unicode="6" horiz-adv-x="614" 
d="M166 236q0 43 18.5 76.5t50.5 52t72 18.5t72 -18.5t50.5 -52t18.5 -76.5t-18.5 -75t-50.5 -50.5t-72 -18.5t-72 18.5t-50.5 50.5t-18.5 75zM331 699l-222 -298q-26 -33 -42.5 -74.5t-16.5 -90.5q0 -77 34.5 -133t92.5 -85.5t130 -29.5t130 29.5t92.5 85.5t34.5 133
q0 50 -17.5 92t-47 72.5t-67.5 47t-79 16.5q-36 0 -62 -8.5t-49 -34.5l17 3l222 275h-150z" />
    <glyph glyph-name="seven" unicode="7" horiz-adv-x="556" 
d="M30 589h347l-287 -589h126l337 700h-523v-111z" />
    <glyph glyph-name="eight" unicode="8" horiz-adv-x="579" 
d="M79 531q0 -44 16.5 -77.5t45.5 -56.5t67 -35t81 -12t81.5 12t67.5 35t45.5 56.5t16.5 77.5q0 54 -28.5 94.5t-76 64t-106.5 23.5q-58 0 -106 -23.5t-76 -64t-28 -94.5zM191 519q0 29 12.5 52t35 35.5t50.5 12.5q30 0 51.5 -12.5t34.5 -35.5t13 -52q0 -30 -13.5 -52
t-36 -34.5t-49.5 -12.5q-26 0 -48.5 12.5t-36 34.5t-13.5 52zM54 190q0 -44 18.5 -80.5t51 -64t75 -42.5t90.5 -15q49 0 91.5 15t75 42.5t51 64t18.5 80.5q0 51 -20 89t-54 63.5t-76.5 38t-85.5 12.5t-85 -12.5t-76 -38t-54 -63.5t-20 -89zM170 206q0 33 16.5 60t44 42.5
t58.5 15.5q32 0 59 -15.5t44 -42.5t17 -60q0 -38 -17 -64t-44 -40t-59 -14q-31 0 -58.5 14t-44 40t-16.5 64z" />
    <glyph glyph-name="nine" unicode="9" horiz-adv-x="614" 
d="M448 464q0 -43 -18.5 -76t-50.5 -52t-72 -19t-72 19t-50.5 52t-18.5 76t18.5 75.5t50.5 51t72 18.5t72 -18.5t50.5 -51t18.5 -75.5zM282 1l223 298q25 34 42 75t17 90q0 78 -34.5 133.5t-92.5 85.5t-130 30t-130 -30t-92.5 -85.5t-34.5 -133.5q0 -50 17 -92t47 -72.5
t67.5 -46.5t79.5 -16q35 0 61.5 8t49.5 34l-18 -3l-222 -275h150z" />
    <glyph glyph-name="colon" unicode=":" horiz-adv-x="309" 
d="M84 51q0 -28 20.5 -49t50.5 -21t50 21t20 49q0 29 -20 49.5t-50 20.5t-50.5 -20.5t-20.5 -49.5zM84 429q0 -28 20.5 -49t50.5 -21t50 21t20 49q0 29 -20 49.5t-50 20.5t-50.5 -20.5t-20.5 -49.5z" />
    <glyph glyph-name="semicolon" unicode=";" horiz-adv-x="355" 
d="M123 426q0 -28 20.5 -49t49.5 -21q31 0 51 21t20 49q0 29 -20 49.5t-51 20.5q-29 0 -49.5 -20.5t-20.5 -49.5zM146 110l-88 -259l80 -22l116 250z" />
    <glyph glyph-name="less" unicode="&#x3c;" horiz-adv-x="640" 
d="M231 264l344 140v107l-510 -217v-68l510 -217v107z" />
    <glyph glyph-name="equal" unicode="=" horiz-adv-x="620" 
d="M61 118h497v97h-497v-97zM61 290h497v98h-497v-98z" />
    <glyph glyph-name="greater" unicode="&#x3e;" horiz-adv-x="640" 
d="M410 256l-345 -140v-107l510 217v68l-510 217v-107z" />
    <glyph glyph-name="question" unicode="?" horiz-adv-x="585" 
d="M418 500q0 -33 -21.5 -65.5t-63 -54t-101.5 -21.5h-28l20 -176h85l6 105q55 6 103.5 34t79 74t30.5 104q0 48 -18.5 87t-51 67.5t-74 44t-89.5 15.5q-59 0 -102.5 -15t-76.5 -42.5t-61 -64.5l80 -59q25 40 63 62.5t87 22.5q41 0 71 -14t46 -40t16 -64zM197 48
q0 -27 20.5 -47t50.5 -20t50 20t20 47t-20 46.5t-50 19.5t-50.5 -19.5t-20.5 -46.5z" />
    <glyph glyph-name="at" unicode="@" horiz-adv-x="770" 
d="M286 320q0 38 14 67t36 45.5t46 16.5q21 0 37 -9.5t25 -27.5t9 -44q0 -46 -16 -74.5t-39 -41.5t-45 -13q-33 0 -50 21.5t-17 59.5zM193 315q0 -49 18 -84.5t49 -54t68 -18.5q46 0 83 24t60 71.5t23 116.5q0 41 -14 77.5t-41.5 59.5t-67.5 23q-41 0 -82 -25t-68.5 -72.5
t-27.5 -117.5zM29 320q0 -99 38.5 -175t113.5 -118.5t184 -42.5q82 0 136 15.5t99 41.5l-35 71q-47 -28 -94.5 -38.5t-100.5 -10.5q-80 0 -137 31.5t-87.5 89t-30.5 136.5q0 68 21 125.5t60.5 100t95 66.5t123.5 24q60 0 105 -20t75 -54.5t45 -78.5t15 -93q0 -62 -16 -98
t-36.5 -51t-33.5 -15q-14 0 -21.5 6t-10 16t-2.5 22q0 6 0.5 14t1.5 13l35 223h-92l-31 -240l10 -12q-5 -33 6.5 -60t36 -43.5t55.5 -16.5t63.5 13t60 41.5t44 75t16.5 112.5q0 61 -20.5 119t-62 104.5t-102.5 74t-141 27.5q-85 0 -155.5 -30.5t-122.5 -84t-80 -125.5
t-28 -155z" />
    <glyph glyph-name="A" unicode="A" horiz-adv-x="690" 
d="M162 180h370l-22 100h-325zM345 502l112 -260l2 -29l95 -213h134l-343 739l-342 -739h133l97 219l2 26z" />
    <glyph glyph-name="B" unicode="B" horiz-adv-x="601" 
d="M168 361h121q67 0 117 19t78.5 55.5t28.5 88.5q0 60 -28.5 99t-78.5 58t-117 19h-211v-700h223q75 0 131.5 21.5t88.5 66.5t32 114q0 50 -20 86t-55 59t-80.5 34.5t-96.5 11.5h-133v-66h126q30 0 55 -6.5t44 -21t29 -35.5t10 -50q0 -39 -18 -64.5t-49 -38.5t-71 -13h-98
v505h85q50 0 80.5 -24t30.5 -68q0 -29 -14 -49.5t-39 -31.5t-58 -11h-113v-58z" />
    <glyph glyph-name="C" unicode="C" horiz-adv-x="691" 
d="M166 350q0 75 33.5 130.5t87.5 86t118 30.5q50 0 90.5 -13t72.5 -35.5t56 -50.5v140q-43 37 -94.5 56t-128.5 19t-143.5 -26.5t-115.5 -75t-76.5 -115t-27.5 -146.5q0 -79 27.5 -145.5t76.5 -115.5t115.5 -75t143.5 -26t128.5 19t94.5 55v141q-24 -29 -56 -51.5
t-72.5 -35.5t-90.5 -13q-64 0 -118 31t-87.5 86.5t-33.5 129.5z" />
    <glyph glyph-name="D" unicode="D" horiz-adv-x="701" 
d="M78 700v-700h121v700h-121zM304 0q107 0 188 43.5t126.5 122t45.5 184.5t-45.5 184.5t-126.5 122t-188 43.5h-153v-111h150q52 0 96 -15t76.5 -45t51 -75t18.5 -104t-18.5 -104t-51 -74.5t-76.5 -45t-96 -15.5h-150v-111h153z" />
    <glyph glyph-name="E" unicode="E" horiz-adv-x="571" 
d="M151 0h353v104h-353v-104zM151 596h353v104h-353v-104zM151 324h333v102h-333v-102zM78 700v-700h116v700h-116z" />
    <glyph glyph-name="F" unicode="F" horiz-adv-x="521" 
d="M151 594h313v106h-313v-106zM151 316h303v103h-303v-103zM78 700v-700h116v700h-116z" />
    <glyph glyph-name="G" unicode="G" horiz-adv-x="791" 
d="M411 266h215q-9 -35 -27 -66t-45 -55t-64 -37t-84 -13q-69 0 -124 32t-87 89.5t-32 133.5q0 77 32.5 133.5t88 88t122.5 31.5q73 0 124.5 -30t80.5 -80l96 64q-31 49 -75 83.5t-100.5 53.5t-125.5 19q-79 0 -146 -26.5t-117 -75t-77.5 -115t-27.5 -146.5t27 -147
t76.5 -116t116.5 -75.5t146 -26.5q84 0 149 30.5t109 83.5t66 121.5t20 145.5h-337v-100z" />
    <glyph glyph-name="H" unicode="H" horiz-adv-x="744" 
d="M125 321h500v109h-500v-109zM548 700v-700h118v700h-118zM78 700v-700h118v700h-118z" />
    <glyph glyph-name="I" unicode="I" horiz-adv-x="275" 
d="M78 700v-700h120v700h-120z" />
    <glyph glyph-name="J" unicode="J" horiz-adv-x="276" 
d="M-69 -88l-63 -87q13 -11 35 -23t51.5 -20.5t60.5 -8.5q39 0 73 9.5t59 30.5t38.5 53t13.5 77v757h-121v-736q0 -47 -22 -66.5t-45 -19.5q-25 0 -46 9.5t-34 24.5z" />
    <glyph glyph-name="K" unicode="K" horiz-adv-x="619" 
d="M78 700v-700h121v700h-121zM459 700l-295 -331l307 -369h146l-311 372l296 328h-143z" />
    <glyph glyph-name="L" unicode="L" horiz-adv-x="481" 
d="M78 700v-700h396v106h-278v594h-118z" />
    <glyph glyph-name="M" unicode="M" horiz-adv-x="843" 
d="M208 426l213 -361l214 361l48 -426h122l-96 735l-288 -475l-287 475l-96 -735h122z" />
    <glyph glyph-name="N" unicode="N" horiz-adv-x="783" 
d="M589 700v-470l-511 505v-735h116v470l511 -505v735h-116z" />
    <glyph glyph-name="O" unicode="O" horiz-adv-x="803" 
d="M163 350q0 72 31 128.5t84.5 88.5t122.5 32q71 0 124.5 -32t83.5 -88.5t30 -128.5t-30.5 -128t-84 -88.5t-123.5 -32.5q-69 0 -122.5 32.5t-84.5 88.5t-31 128zM38 350q0 -78 27 -145t76 -116t115.5 -76.5t144.5 -27.5q80 0 146 27.5t115 76.5t76 116t27 145
q0 79 -27 145t-76.5 114.5t-115.5 76t-145 27.5q-77 0 -143.5 -27.5t-116 -76t-76.5 -114.5t-27 -145z" />
    <glyph glyph-name="P" unicode="P" horiz-adv-x="578" 
d="M78 700v-700h118v700h-118zM148 596h141q61 0 98 -28.5t37 -84.5t-37 -85t-98 -29h-141v-104h141q77 0 133 26.5t87.5 75.5t31.5 116t-31.5 115.5t-87.5 75t-133 26.5h-141v-104z" />
    <glyph glyph-name="Q" unicode="Q" horiz-adv-x="820" 
d="M163 350q0 72 31 128.5t85 88.5t124 32q73 0 127.5 -34t85.5 -92t31 -130t-31 -128t-84.5 -87.5t-123.5 -31.5t-125 32.5t-87.5 90t-32.5 131.5zM38 350q0 -78 27 -145t76.5 -116t116 -76.5t145.5 -27.5t145 27.5t115 76.5t75.5 116t26.5 145q0 79 -27 145t-76 114.5
t-115 76t-144 27.5t-144.5 -27.5t-116 -76t-77 -114.5t-27.5 -145zM370 300l313 -305h138l-315 305h-136z" />
    <glyph glyph-name="R" unicode="R" horiz-adv-x="595" 
d="M223 334l222 -334h143l-238 334h-127zM78 700v-700h118v700h-118zM148 598h141q41 0 71 -14t47 -40t17 -64q0 -37 -17 -63.5t-47 -40t-71 -13.5h-141v-98h146q77 0 133 27t87.5 76t31.5 115t-31.5 114.5t-87.5 75.5t-133 27h-146v-102z" />
    <glyph glyph-name="S" unicode="S" horiz-adv-x="579" 
d="M124 226l-88 -62q23 -48 62.5 -89t92 -65.5t113.5 -24.5q45 0 86.5 14.5t74.5 41t52.5 65.5t19.5 88q0 46 -16 80.5t-41.5 59.5t-57 42t-63.5 28q-56 20 -91 39t-51.5 40.5t-16.5 48.5q0 30 23 52.5t72 22.5q35 0 61.5 -13.5t46.5 -36t34 -48.5l95 54q-17 37 -49 71
t-78 56.5t-108 22.5q-63 0 -112.5 -24t-78.5 -66.5t-29 -98.5q0 -49 19 -83.5t48 -58t61 -39t58 -24.5q44 -16 78 -32.5t52.5 -40t18.5 -61.5q0 -42 -30 -68t-78 -26q-39 0 -71.5 17t-59 47t-49.5 71z" />
    <glyph glyph-name="T" unicode="T" horiz-adv-x="504" 
d="M8 591h185v-591h118v591h185v109h-488v-109z" />
    <glyph glyph-name="U" unicode="U" horiz-adv-x="656" 
d="M73 700v-470q0 -58 18.5 -103.5t52.5 -77.5t81 -49t103 -17t103 17t81.5 49t53 77.5t18.5 103.5v470h-119v-465q0 -64 -34.5 -104t-102.5 -40q-67 0 -102 40t-35 104v465h-118z" />
    <glyph glyph-name="V" unicode="V" horiz-adv-x="690" 
d="M345 208l-206 492h-136l342 -739l343 739h-137z" />
    <glyph glyph-name="W" unicode="W" horiz-adv-x="1020" 
d="M712 232l-202 503l-198 -503l-167 468h-137l286 -737l216 495l216 -495l287 737h-138z" />
    <glyph glyph-name="X" unicode="X" horiz-adv-x="608" 
d="M441 700l-134 -236l-131 236h-143l208 -336l-233 -364h143l155 269l150 -269h144l-227 364l212 336h-144z" />
    <glyph glyph-name="Y" unicode="Y" horiz-adv-x="601" 
d="M463 700l-163 -299l-162 299h-135l238 -406v-294h120v295l237 405h-135z" />
    <glyph glyph-name="Z" unicode="Z" horiz-adv-x="575" 
d="M44 591h320l-351 -591h518v106h-326l353 594h-514v-109z" />
    <glyph glyph-name="bracketleft" unicode="[" horiz-adv-x="325" 
d="M204 683h101v97h-209v-1000h209v98h-101v805z" />
    <glyph glyph-name="backslash" unicode="\" horiz-adv-x="528" 
d="M15 700l388 -700h110l-388 700h-110z" />
    <glyph glyph-name="bracketright" unicode="]" horiz-adv-x="325" 
d="M121 -122h-101v-98h209v1000h-209v-97h101v-805z" />
    <glyph glyph-name="asciicircum" unicode="^" horiz-adv-x="510" 
d="M255 605l98 -150h102l-170 255h-60l-170 -255h103z" />
    <glyph glyph-name="underscore" unicode="_" horiz-adv-x="513" 
d="M0 -141h513v71h-513v-71z" />
    <glyph glyph-name="grave" unicode="`" horiz-adv-x="375" 
d="M66 658l180 -150l62 35l-150 160z" />
    <glyph glyph-name="a" unicode="a" horiz-adv-x="504" 
d="M137 143q0 22 10.5 37t31.5 23.5t55 8.5q39 0 74 -10t66 -32v55q-9 11 -31 24.5t-55.5 23.5t-79.5 10q-86 0 -133 -39.5t-47 -106.5q0 -47 22 -80t59 -50t80 -17q40 0 78.5 14.5t64 44.5t25.5 74l-16 60q0 -35 -16 -60t-42.5 -38.5t-59.5 -13.5q-25 0 -44.5 8t-30.5 24.5
t-11 39.5zM103 340q11 7 31 17.5t48.5 18t60.5 7.5q21 0 39 -4t31.5 -13t20.5 -23t7 -36v-307h106v328q0 46 -24.5 78t-68.5 48.5t-100 16.5q-65 0 -114 -18t-81 -37z" />
    <glyph glyph-name="b" unicode="b" horiz-adv-x="589" 
d="M174 780h-109v-780h109v780zM555 230q0 76 -31 129.5t-82 82t-111 28.5q-57 0 -101 -29t-69.5 -82.5t-25.5 -128.5q0 -74 25.5 -128t69.5 -83t101 -29q60 0 111 28.5t82 82.5t31 129zM443 230q0 -46 -19 -79t-50 -50t-69 -17q-32 0 -62 17t-49.5 49.5t-19.5 79.5
t19.5 79.5t49.5 49.5t62 17q38 0 69 -17t50 -50t19 -79z" />
    <glyph glyph-name="c" unicode="c" horiz-adv-x="484" 
d="M141 230q0 43 19 76t51.5 52t72.5 19q32 0 62 -10t53.5 -27.5t34.5 -40.5v120q-24 23 -65 37t-90 14q-70 0 -126.5 -30.5t-89.5 -84.5t-33 -125q0 -70 33 -124.5t89.5 -85t126.5 -30.5q49 0 90 14t65 38v119q-11 -22 -34 -39.5t-52.5 -28t-63.5 -10.5q-40 0 -72.5 19
t-51.5 52t-19 76z" />
    <glyph glyph-name="d" unicode="d" horiz-adv-x="589" 
d="M415 780v-780h109v780h-109zM34 230q0 -75 31 -129t82.5 -82.5t110.5 -28.5q58 0 101.5 29t69 83t25.5 128q0 75 -25.5 128.5t-69 82.5t-101.5 29q-59 0 -110.5 -28.5t-82.5 -82t-31 -129.5zM146 230q0 46 19 79t50.5 50t68.5 17q32 0 62 -17t49.5 -49.5t19.5 -79.5
t-19.5 -79.5t-49.5 -49.5t-62 -17q-37 0 -68.5 17t-50.5 50t-19 79z" />
    <glyph glyph-name="e" unicode="e" horiz-adv-x="539" 
d="M269 -10q80 0 137 31.5t94 93.5l-94 37q-21 -37 -54 -55t-78 -18q-42 0 -71 18t-44.5 53t-14.5 84q0 50 15.5 84t44 52t69.5 18q34 0 59.5 -15t40 -42t14.5 -64q0 -7 -3.5 -17t-6.5 -16l33 46h-311v-75h404q0 4 0.5 13t0.5 17q0 74 -27 126.5t-78.5 80.5t-124.5 28
t-127 -29.5t-83.5 -83.5t-29.5 -127q0 -72 29 -126t82.5 -84t123.5 -30z" />
    <glyph glyph-name="f" unicode="f" horiz-adv-x="309" 
d="M31 460v-95h264v95h-264zM284 664l50 84q-8 10 -22 20.5t-34 17.5t-47 7q-49 0 -82 -19t-50.5 -54.5t-17.5 -89.5v-630h107v609q0 29 6 47t16.5 26t25.5 8q12 0 25 -5t23 -21z" />
    <glyph glyph-name="g" unicode="g" horiz-adv-x="586" 
d="M43 -31q2 -60 31 -106t82 -71.5t127 -25.5q63 0 117 26.5t87.5 80.5t33.5 137v450h-106v-450q0 -52 -19.5 -85t-50.5 -49t-64 -16q-39 0 -68 14.5t-45 39t-17 55.5h-108zM34 233q0 -76 31 -129t82.5 -81t110.5 -28q58 0 101.5 28.5t69 82t25.5 127.5q0 75 -25.5 127.5
t-69 81t-101.5 28.5q-59 0 -110.5 -28t-82.5 -80.5t-31 -128.5zM146 233q0 46 19 78t50.5 48.5t68.5 16.5q24 0 47 -9t42 -27.5t30.5 -45t11.5 -61.5q0 -47 -19.5 -79t-49.5 -48.5t-62 -16.5q-37 0 -68.5 16.5t-50.5 49t-19 78.5z" />
    <glyph glyph-name="h" unicode="h" horiz-adv-x="543" 
d="M178 780h-109v-780h109v780zM365 280v-280h109v295q0 59 -18 98.5t-53 59.5t-87 20t-88.5 -25.5t-56 -69t-19.5 -98.5h26q0 31 12.5 54t35.5 36t54 13q44 0 64.5 -26t20.5 -77z" />
    <glyph glyph-name="i" unicode="i" horiz-adv-x="267" 
d="M65 643q0 -27 20.5 -46.5t47.5 -19.5q29 0 49 19.5t20 46.5q0 28 -20 47t-49 19q-27 0 -47.5 -19t-20.5 -47zM80 460v-460h107v460h-107z" />
    <glyph glyph-name="j" unicode="j" horiz-adv-x="259" 
d="M55 643q0 -27 20 -46t48 -19t47.5 19t19.5 46q0 28 -19.5 46.5t-47.5 18.5t-48 -18.5t-20 -46.5zM-23 -99l-51 -84q11 -12 25.5 -22.5t33.5 -16t45 -5.5q48 0 81.5 19.5t50.5 56t17 86.5v525h-106v-504q0 -28 -5.5 -46t-16 -26.5t-26.5 -8.5t-28 7t-20 19z" />
    <glyph glyph-name="k" unicode="k" horiz-adv-x="495" 
d="M65 780v-780h106v780h-106zM340 460l-198 -190l219 -270h132l-219 270l199 190h-133z" />
    <glyph glyph-name="l" unicode="l" horiz-adv-x="246" 
d="M69 780v-780h109v780h-109z" />
    <glyph glyph-name="m" unicode="m" horiz-adv-x="796" 
d="M728 293q0 56 -16.5 96t-48.5 60.5t-82 20.5q-46 0 -82.5 -20.5t-61.5 -61.5q-15 40 -48.5 61t-83.5 21q-45 0 -77 -19.5t-53 -57.5v67h-106v-460h106v280q0 33 11.5 56t32 35t47.5 12q40 0 58.5 -25.5t18.5 -77.5v-280h108v280q0 33 11.5 56t32 35t48.5 12
q39 0 57.5 -25.5t18.5 -77.5v-280h109v293z" />
    <glyph glyph-name="n" unicode="n" horiz-adv-x="545" 
d="M365 280v-280h111v293q0 82 -41 129.5t-119 47.5q-47 0 -81.5 -20t-56.5 -61v71h-109v-460h109v280q0 31 12.5 54.5t35.5 36t54 12.5q43 0 64 -26t21 -77z" />
    <glyph glyph-name="o" unicode="o" horiz-adv-x="564" 
d="M34 230q0 -70 32.5 -124.5t89 -85t126.5 -30.5q71 0 127 30.5t88.5 85t32.5 124.5q0 71 -32.5 125t-88.5 84.5t-127 30.5q-70 0 -126.5 -30.5t-89 -84.5t-32.5 -125zM145 230q0 43 18 76t49 51t70 18t70 -18t49 -51t18 -76t-18 -75.5t-49 -51t-70 -18.5t-70 18.5t-49 51
t-18 75.5z" />
    <glyph glyph-name="p" unicode="p" horiz-adv-x="589" 
d="M174 -220v680h-109v-680h109zM555 230q0 78 -31 131.5t-82 82.5t-111 29q-58 0 -101.5 -30t-67.5 -84t-24 -129q0 -74 24 -128.5t67.5 -84t101.5 -29.5q60 0 111 28.5t82 83t31 130.5zM443 230q0 -46 -19 -78t-50 -49t-69 -17q-32 0 -62 16.5t-49.5 48.5t-19.5 79
t19.5 79t49.5 48.5t62 16.5q38 0 69 -16.5t50 -49t19 -78.5z" />
    <glyph glyph-name="q" unicode="q" horiz-adv-x="589" 
d="M415 -220h109v680h-109v-680zM34 230q0 -76 31 -130.5t82.5 -83t110.5 -28.5t102 29.5t67 84t24 128.5q0 75 -24 129t-67 84t-102 30t-110.5 -29t-82.5 -82.5t-31 -131.5zM146 230q0 46 19 78.5t50.5 49t68.5 16.5q32 0 62 -16.5t49.5 -48.5t19.5 -79t-19.5 -79
t-49.5 -48.5t-62 -16.5q-37 0 -68.5 17t-50.5 49t-19 78z" />
    <glyph glyph-name="r" unicode="r" horiz-adv-x="371" 
d="M176 460h-107v-460h107v460zM313 345l53 91q-16 19 -38 27t-47 8q-35 0 -67.5 -25.5t-53 -68t-20.5 -97.5l36 -21q0 33 7.5 57.5t24.5 38.5t44 14q20 0 33.5 -6t27.5 -18z" />
    <glyph glyph-name="s" unicode="s" horiz-adv-x="424" 
d="M90 152l-63 -64q20 -26 50 -49.5t69 -38t87 -14.5q75 0 119.5 39.5t44.5 104.5q0 42 -19 68t-51 44t-71 33q-28 11 -50.5 21t-36 22.5t-13.5 28.5q0 19 15 29t39 10q34 0 66 -17t54 -44l60 64q-19 23 -46 41t-60.5 29t-71.5 11q-42 0 -78.5 -13.5t-58 -41.5t-21.5 -70
q0 -41 19.5 -68t50 -43.5t61.5 -28.5q31 -11 54 -21.5t36 -25t13 -34.5q0 -23 -16.5 -36t-45.5 -13q-23 0 -46 9t-45 26t-45 42z" />
    <glyph glyph-name="t" unicode="t" horiz-adv-x="271" 
d="M5 460v-95h261v95h-261zM83 620v-620h106v620h-106z" />
    <glyph glyph-name="u" unicode="u" horiz-adv-x="545" 
d="M180 180v280h-111v-292q0 -82 41.5 -130t118.5 -48q48 0 82.5 20.5t56.5 60.5v-71h108v460h-108v-280q0 -31 -13 -54t-36 -36t-53 -13q-44 0 -65 27t-21 76z" />
    <glyph glyph-name="v" unicode="v" horiz-adv-x="475" 
d="M-1 460l239 -502l238 502h-118l-120 -297l-120 297h-119z" />
    <glyph glyph-name="w" unicode="w" horiz-adv-x="713" 
d="M0 460l215 -492l138 310l145 -310l215 492h-118l-108 -275l-134 310l-128 -308l-107 273h-118z" />
    <glyph glyph-name="x" unicode="x" horiz-adv-x="465" 
d="M334 460l-100 -144l-100 144h-124l166 -223l-176 -237h124l110 158l110 -158h121l-175 237l165 223h-121z" />
    <glyph glyph-name="y" unicode="y" horiz-adv-x="473" 
d="M476 460h-116l-144 -361l51 -3l-147 364h-124l186 -406l-121 -274h115z" />
    <glyph glyph-name="z" unicode="z" horiz-adv-x="485" 
d="M283 360l-268 -360h430v100h-238l263 360h-420v-100h233z" />
    <glyph glyph-name="braceleft" unicode="{" horiz-adv-x="346" 
d="M213 640q0 20 13 35t35 15h35v90h-72q-30 0 -59 -14.5t-48 -45t-19 -80.5v-200q0 -57 -13 -79.5t-40 -30.5v-80q27 -7 40 -30t13 -80v-200q0 -49 19 -80t48 -45.5t59 -14.5h72v90h-35q-22 0 -35 15.5t-13 34.5v150q0 33 -3 70t-14.5 68.5t-37 51.5t-70.5 20v-20
q45 0 70.5 20t37 51.5t14.5 68.5t3 70v150z" />
    <glyph glyph-name="bar" unicode="|" horiz-adv-x="306" 
d="M100 785v-1000h106v1000h-106z" />
    <glyph glyph-name="braceright" unicode="}" horiz-adv-x="346" 
d="M140 -60q0 -19 -12.5 -34.5t-35.5 -15.5h-35v-90h72q30 0 59 14.5t48 45.5t19 80v200q0 57 13.5 80t39.5 30v80q-26 8 -39.5 30.5t-13.5 79.5v200q0 50 -19 80.5t-48 45t-59 14.5h-72v-90h35q23 0 35.5 -15t12.5 -35v-150q0 -33 2.5 -70t14.5 -68.5t37.5 -51.5t70.5 -20
v20q-45 0 -70.5 -20t-37.5 -51.5t-14.5 -68.5t-2.5 -70v-150z" />
    <glyph glyph-name="asciitilde" unicode="~" horiz-adv-x="575" 
d="M148 171q-2 6 -3.5 12t-1.5 13q0 22 12 36.5t38 14.5q13 0 26.5 -4t28.5 -11t30 -19q34 -24 63 -36t56 -12q32 0 57 12t44 37q15 19 20 40.5t5 40.5q0 8 -1 15t-3 13l-96 5q3 -7 4 -14.5t1 -14.5q0 -21 -9 -33.5t-29 -12.5q-13 0 -31 8.5t-41 24.5q-22 16 -42.5 27
t-40.5 16.5t-41 5.5q-38 0 -66 -14.5t-48 -40.5q-15 -20 -21 -40t-6 -40q0 -13 3 -24z" />
    <glyph glyph-name="uni00A0" unicode="&#xa0;" horiz-adv-x="300" 
 />
    <glyph glyph-name="exclamdown" unicode="&#xa1;" horiz-adv-x="318" 
d="M226 -239l-25 488h-85l-25 -488h135zM230 413q0 29 -20.5 48t-50.5 19t-50.5 -19t-20.5 -48t20.5 -48.5t50.5 -19.5t50.5 19.5t20.5 48.5z" />
    <glyph glyph-name="cent" unicode="&#xa2;" horiz-adv-x="580" 
d="M263 38l-4 -150h90l-4 150h-82zM179 230q0 43 19.5 76.5t52 52t72.5 18.5q52 0 92 -23t58 -55v120q-24 24 -66 37.5t-89 13.5q-71 0 -127.5 -30.5t-89 -84.5t-32.5 -125q0 -70 32.5 -124.5t89 -85t127.5 -30.5q47 0 89 13.5t66 38.5v120q-18 -32 -58 -55.5t-92 -23.5
q-40 0 -72.5 18.5t-52 51.5t-19.5 77zM259 578l4 -150h82l4 150h-90z" />
    <glyph glyph-name="sterling" unicode="&#xa3;" horiz-adv-x="593" 
d="M67 370v-85h368v85h-368zM444 474l97 38q-2 31 -16.5 65.5t-41.5 64.5t-67 49t-92 19q-62 0 -112 -22.5t-79 -65.5t-29 -103q0 -38 10 -66.5t25.5 -51.5t31 -43.5t25.5 -43t10 -50.5q0 -46 -16.5 -87t-49 -83.5t-81.5 -93.5h467v104h-357l-22 -54q28 8 57 27.5t54 48.5
t40 65t15 76q0 34 -9.5 58.5t-23 45t-28 41t-24 44t-9.5 54.5q0 34 15.5 55.5t40 31t51.5 9.5q30 0 52 -11t36 -30t21.5 -43t8.5 -48z" />
    <glyph glyph-name="currency" unicode="&#xa4;" horiz-adv-x="579" 
d="M32 503l96 -95l54 54l-95 96zM87 42l95 97l-54 54l-96 -96zM451 408l96 95l-54 55l-97 -96zM396 139l97 -97l54 55l-96 96zM52 300q0 -69 31.5 -123.5t85.5 -85.5t121 -31q68 0 121.5 31t85 85.5t31.5 123.5q0 70 -31.5 124t-85 85t-121.5 31q-67 0 -121 -31t-85.5 -85
t-31.5 -124zM155 300q0 41 17.5 73t48 49.5t69.5 17.5q38 0 68.5 -17.5t48 -49.5t17.5 -73t-17.5 -73t-48 -49.5t-68.5 -17.5q-39 0 -69.5 17.5t-48 49.5t-17.5 73z" />
    <glyph glyph-name="yen" unicode="&#xa5;" horiz-adv-x="616" 
d="M45 280h521v85h-521v-85zM45 130h521v85h-521v-85zM471 700l-163 -299l-163 299h-135l238 -404v-296h121v299l236 401h-134z" />
    <glyph glyph-name="brokenbar" unicode="&#xa6;" horiz-adv-x="306" 
d="M100 695v-250h106v250h-106zM206 255h-106v-250h106v250z" />
    <glyph glyph-name="section" unicode="&#xa7;" horiz-adv-x="476" 
d="M346 567l67 64q-11 24 -37.5 43t-62.5 30.5t-74 11.5q-40 0 -77.5 -15.5t-62 -44.5t-24.5 -71q0 -30 11.5 -52t30 -38t41 -27.5t45.5 -20.5q27 -10 52.5 -21.5t42 -28t16.5 -41.5q0 -20 -11 -38.5t-29 -30.5t-41 -14v-37q39 0 72.5 7t59.5 23.5t40 43t14 63.5
q0 36 -18 62t-47.5 45t-65.5 31q-19 8 -38.5 15t-35 15t-24.5 18.5t-9 21.5q0 13 7.5 21.5t22 13t32.5 4.5t37.5 -6t37 -17.5t28.5 -29.5zM109 166l-69 -62q14 -33 43 -60.5t69.5 -43t87.5 -15.5q37 0 70 8.5t58 26t39 45t14 65.5q0 37 -18 63.5t-47 45.5t-62 32
q-19 8 -40 15.5t-39 17.5t-29.5 25.5t-11.5 39.5q0 21 10 35.5t29 25t45 19.5v31q-43 0 -77.5 -8.5t-59.5 -25.5t-38.5 -41t-13.5 -56q0 -38 21 -66t53 -46t66 -30q27 -9 50 -19t37 -24t14 -35q0 -17 -8 -27.5t-23.5 -16t-38.5 -5.5q-24 0 -49.5 10.5t-47 29.5t-34.5 46z
" />
    <glyph glyph-name="dieresis" unicode="&#xa8;" horiz-adv-x="487" 
d="M284 649q0 -28 20 -47t48 -19q29 0 48.5 19t19.5 47t-19.5 47t-48.5 19q-28 0 -48 -19t-20 -47zM66 649q0 -28 20.5 -47t48.5 -19t48 19t20 47t-20 47t-48 19t-48.5 -19t-20.5 -47z" />
    <glyph glyph-name="copyright" unicode="&#xa9;" horiz-adv-x="800" 
d="M259 350q0 45 19 78t52 51.5t73 18.5q44 0 77 -16.5t54 -42.5v84q-26 22 -56.5 33.5t-76.5 11.5q-62 0 -111.5 -28t-78.5 -77t-29 -113q0 -63 29 -112.5t78.5 -77t111.5 -27.5q46 0 76.5 11.5t56.5 32.5v84q-21 -25 -54 -42t-77 -17q-40 0 -73 18.5t-52 51.5t-19 78z
M95 350q0 67 23 123.5t64.5 98.5t97 65t120.5 23t120.5 -23t97 -65t64.5 -98.5t23 -123.5t-23 -123.5t-64.5 -98.5t-97 -65t-120.5 -23t-120.5 23t-97 65t-64.5 98.5t-23 123.5zM40 350q0 -78 27.5 -144t76 -114.5t114.5 -75t142 -26.5q77 0 142.5 26.5t114 75t76 114.5
t27.5 144t-27.5 144t-76 114.5t-114 75t-142.5 26.5q-76 0 -142 -26.5t-114.5 -75t-76 -114.5t-27.5 -144z" />
    <glyph glyph-name="ordfeminine" unicode="&#xaa;" horiz-adv-x="251" 
d="M74 531q0 18 14 31t38 13q21 0 37.5 -5.5t30.5 -16.5v29q-6 6 -26 16.5t-50 10.5q-39 0 -69 -21.5t-30 -57.5t24.5 -55.5t57.5 -19.5q36 0 60.5 18.5t24.5 51.5l-8 26q0 -30 -19 -42t-42 -12t-33 10t-10 24zM62 638q8 5 27 13.5t44 8.5q19 0 32 -9t13 -26v-165h53v173
q0 35 -26.5 53.5t-68.5 18.5q-31 0 -55.5 -9t-39.5 -18z" />
    <glyph glyph-name="guillemotleft" unicode="&#xab;" horiz-adv-x="523" 
d="M315 259l150 186l-67 53l-185 -243l185 -242l67 52zM138 259l150 186l-68 53l-185 -243l185 -242l68 52z" />
    <glyph glyph-name="logicalnot" unicode="&#xac;" horiz-adv-x="632" 
d="M65 289h415v-114h87v211h-502v-97z" />
    <glyph glyph-name="uni00AD" unicode="&#xad;" horiz-adv-x="210" 
d="M5 200h200v75h-200v-75z" />
    <glyph glyph-name="registered" unicode="&#xae;" horiz-adv-x="800" 
d="M360 345l124 -195h85l-137 195h-72zM266 570v-420h71v420h-71zM308 509h85q37 0 59 -17.5t22 -51.5t-22 -52t-59 -18h-85v-58h88q68 0 109.5 35.5t41.5 94.5q0 57 -41.5 92.5t-109.5 35.5h-88v-61zM95 350q0 67 23 123.5t64.5 98.5t97 65t120.5 23t120.5 -23t97 -65
t64.5 -98.5t23 -123.5t-23 -123.5t-64.5 -98.5t-97 -65t-120.5 -23t-120.5 23t-97 65t-64.5 98.5t-23 123.5zM40 350q0 -78 27.5 -144t76 -114.5t114.5 -75t142 -26.5q77 0 142.5 26.5t114 75t76 114.5t27.5 144t-27.5 144t-76 114.5t-114 75t-142.5 26.5q-76 0 -142 -26.5
t-114.5 -75t-76 -114.5t-27.5 -144z" />
    <glyph glyph-name="macron" unicode="&#xaf;" horiz-adv-x="519" 
d="M80 589h359v97h-359v-97z" />
    <glyph glyph-name="degree" unicode="&#xb0;" horiz-adv-x="286" 
d="M19 599q0 -53 35 -87t89 -34q53 0 88.5 34t35.5 87q0 54 -35.5 87.5t-88.5 33.5q-54 0 -89 -33.5t-35 -87.5zM73 599q0 32 19.5 52.5t50.5 20.5q30 0 50 -20.5t20 -52.5t-20 -52.5t-51 -20.5q-30 0 -49.5 20.5t-19.5 52.5z" />
    <glyph glyph-name="plusminus" unicode="&#xb1;" horiz-adv-x="623" 
d="M65 3h493v100h-493v-100zM65 340h493v103h-493v-103zM255 620v-457h113v457h-113z" />
    <glyph glyph-name="uni00B2" unicode="&#xb2;" horiz-adv-x="371" 
d="M25 282h320v66h-182l119 117q26 25 42 53.5t16 60.5q0 30 -15 60.5t-45.5 50.5t-79.5 20q-47 0 -81.5 -20.5t-52.5 -55.5t-18 -80h70q0 42 22.5 67t58.5 25q23 0 38 -9.5t22.5 -24.5t7.5 -32q0 -25 -12.5 -47t-35.5 -46z" />
    <glyph glyph-name="uni00B3" unicode="&#xb3;" horiz-adv-x="333" 
d="M146 486q45 0 79.5 13.5t54.5 37.5t20 56q0 46 -34 80t-95 34q-58 0 -94.5 -33.5t-36.5 -84.5h67q0 25 18.5 41.5t45.5 16.5q29 0 43 -15.5t14 -41.5q0 -18 -9.5 -33t-28 -24t-44.5 -9v-38zM167 273q65 0 105 33t40 87q0 42 -22 68t-59.5 38t-84.5 12v-40q29 0 50 -8.5
t32.5 -24t11.5 -38.5q0 -31 -19.5 -48.5t-51.5 -17.5t-53.5 18t-21.5 48h-72q0 -34 17.5 -63.5t50.5 -46.5t77 -17z" />
    <glyph glyph-name="acute" unicode="&#xb4;" horiz-adv-x="375" 
d="M308 658l-92 45l-150 -160l62 -35z" />
    <glyph glyph-name="mu" unicode="&#xb5;" horiz-adv-x="545" 
d="M180 460h-111v-780h106v331q18 -10 36 -14t37 -4q38 0 68.5 17.5t51.5 47.5v-58h108v460h-108v-270q0 -30 -13 -53.5t-36 -36.5t-53 -13q-45 0 -65.5 26.5t-20.5 76.5v270z" />
    <glyph glyph-name="paragraph" unicode="&#xb6;" horiz-adv-x="616" 
d="M288 270v-490h95v844h78v-844h95v920h-268q-62 0 -114 -25t-83 -72.5t-31 -117.5q0 -69 31 -117t83 -73t114 -25z" />
    <glyph glyph-name="periodcentered" unicode="&#xb7;" horiz-adv-x="309" 
d="M84 251q0 -28 20.5 -49t50.5 -21t50 21t20 49q0 29 -20 49.5t-50 20.5t-50.5 -20.5t-20.5 -49.5z" />
    <glyph glyph-name="cedilla" unicode="&#xb8;" horiz-adv-x="368" 
d="M191 65l-86 -179q20 11 40 14t27 3q25 0 39.5 -8t14.5 -26t-12.5 -28t-38.5 -10q-18 0 -33.5 5.5t-31.5 18.5l-38 -51q26 -22 51.5 -30.5t59.5 -8.5q29 0 55.5 11.5t43.5 34t17 54.5q0 28 -12.5 46.5t-31 28t-36.5 9.5q-5 0 -10.5 -0.5t-9.5 -1.5l73 116z" />
    <glyph glyph-name="uni00B9" unicode="&#xb9;" horiz-adv-x="475" 
d="M145 596l97 27v-349h70v427l-167 -38v-67z" />
    <glyph glyph-name="ordmasculine" unicode="&#xba;" horiz-adv-x="278" 
d="M20 580q0 -53 35 -86.5t88 -33.5q54 0 89.5 33.5t35.5 86.5q0 54 -35.5 87t-89.5 33q-53 0 -88 -33t-35 -87zM75 580q0 32 19.5 52t48.5 20q30 0 49.5 -20t19.5 -52t-19.5 -52t-49.5 -20q-29 0 -48.5 20t-19.5 52z" />
    <glyph glyph-name="guillemotright" unicode="&#xbb;" horiz-adv-x="523" 
d="M208 251l-150 -186l67 -52l185 242l-185 243l-67 -53zM385 251l-150 -186l68 -52l185 242l-185 243l-68 -53z" />
    <glyph glyph-name="onequarter" unicode="&#xbc;" horiz-adv-x="782" 
d="M623 700l-520 -700h78l520 700h-78zM28 596l97 27v-349h70v427l-167 -38v-67zM402 80h346v62h-94l-10 -5h-184zM475 92l139 202v-186l-5 -6v-102h73v420h-43l-237 -340z" />
    <glyph glyph-name="onehalf" unicode="&#xbd;" horiz-adv-x="849" 
d="M623 700l-520 -700h78l520 700h-78zM28 596l97 27v-349h70v427l-167 -38v-67zM498 2h320v66h-182l119 117q26 25 42 53.5t16 60.5q0 30 -15 60.5t-45.5 50.5t-79.5 20q-47 0 -81.5 -20.5t-52.5 -55.5t-18 -80h70q0 42 22.5 67t58.5 25q23 0 38 -9.5t22.5 -24.5t7.5 -32
q0 -25 -12.5 -47t-35.5 -46z" />
    <glyph glyph-name="threequarters" unicode="&#xbe;" horiz-adv-x="844" 
d="M689 700l-520 -700h77l520 700h-77zM153 486q44 0 78.5 13.5t54.5 37.5t20 56q0 46 -34 80t-95 34q-58 0 -94.5 -33.5t-36.5 -84.5h67q0 25 18.5 41.5t45.5 16.5q29 0 43.5 -15.5t14.5 -41.5q0 -18 -10 -33t-28.5 -24t-43.5 -9v-38zM174 273q64 0 104 33t40 87
q0 42 -22 68t-59 38t-84 12v-40q28 0 49 -8.5t33 -24t12 -38.5q0 -31 -20 -48.5t-52 -17.5t-53.5 18t-21.5 48h-72q0 -34 18 -63.5t50.5 -46.5t77.5 -17zM465 80h346v62h-94l-10 -5h-184zM538 92l139 202v-186l-5 -6v-102h73v420h-43l-237 -340z" />
    <glyph glyph-name="questiondown" unicode="&#xbf;" horiz-adv-x="585" 
d="M167 200q0 33 21.5 65.5t63 54t101.5 21.5h29l-20 177h-85l-6 -106q-55 -5 -103.5 -33t-79 -73.5t-30.5 -105.5q0 -48 18 -87t50.5 -67.5t74.5 -44t90 -15.5q60 0 103 15t75.5 42.5t60.5 65.5l-80 58q-25 -39 -63 -61.5t-86 -22.5q-42 0 -71.5 13.5t-46 40t-16.5 63.5z
M388 653q0 27 -20 46.5t-50 19.5t-50.5 -19.5t-20.5 -46.5t20.5 -47t50.5 -20t50 20t20 47z" />
    <glyph glyph-name="Agrave" unicode="&#xc0;" horiz-adv-x="690" 
d="M162 180h370l-22 100h-325zM345 502l112 -260l2 -29l95 -213h134l-343 739l-342 -739h133l97 219l2 26zM203 949l180 -150l61 35l-150 160z" />
    <glyph glyph-name="Aacute" unicode="&#xc1;" horiz-adv-x="690" 
d="M162 180h370l-22 100h-325zM345 502l112 -260l2 -29l95 -213h134l-343 739l-342 -739h133l97 219l2 26zM486 949l-91 45l-150 -160l61 -35z" />
    <glyph glyph-name="Acircumflex" unicode="&#xc2;" horiz-adv-x="690" 
d="M162 180h370l-22 100h-325zM345 502l112 -260l2 -29l95 -213h134l-343 739l-342 -739h133l97 219l2 26zM345 860l103 -91l72 52l-175 140l-175 -140l73 -52z" />
    <glyph glyph-name="Atilde" unicode="&#xc3;" horiz-adv-x="690" 
d="M162 180h370l-22 100h-325zM345 502l112 -260l2 -29l95 -213h134l-343 739l-342 -739h133l97 219l2 26zM168 832l60 -47q0 8 4 20t14.5 21.5t30.5 9.5q24 0 42 -12t38.5 -24.5t47.5 -12.5q28 0 51.5 11.5t41 30t25.5 36.5l-56 55q-15 -24 -29.5 -37t-30.5 -13
q-21 0 -34.5 7.5t-26 17.5t-28.5 17t-40 7q-26 0 -49.5 -11.5t-39.5 -31t-21 -44.5z" />
    <glyph glyph-name="Adieresis" unicode="&#xc4;" horiz-adv-x="690" 
d="M162 180h370l-22 100h-325zM345 502l112 -260l2 -29l95 -213h134l-343 739l-342 -739h133l97 219l2 26zM393 842q0 -27 20.5 -46.5t47.5 -19.5q29 0 49 19.5t20 46.5q0 28 -20 47t-49 19q-27 0 -47.5 -19t-20.5 -47zM158 845q0 -28 20.5 -47t47.5 -19q29 0 49 19t20 47
t-20 46.5t-49 18.5q-27 0 -47.5 -18.5t-20.5 -46.5z" />
    <glyph glyph-name="Aring" unicode="&#xc5;" horiz-adv-x="690" 
d="M162 180h370l-22 100h-325zM345 502l112 -260l2 -29l95 -213h134l-343 739l-342 -739h133l97 219l2 26zM234 799q0 -47 33.5 -76.5t77.5 -29.5t77.5 29.5t33.5 76.5q0 48 -33.5 77t-77.5 29t-77.5 -29t-33.5 -77zM296 799q0 24 15 37.5t34 13.5t34 -13.5t15 -37.5
t-15 -37.5t-34 -13.5t-34 13.5t-15 37.5z" />
    <glyph glyph-name="AE" unicode="&#xc6;" horiz-adv-x="1010" 
d="M238 186h303v110h-300zM436 700l-427 -700h142l392 660zM575 0h365v104h-365v-104zM583 596h357v104h-504zM575 324h345v102h-345v-102zM514 700v-700h124v700h-124z" />
    <glyph glyph-name="Ccedilla" unicode="&#xc7;" horiz-adv-x="691" 
d="M166 350q0 75 33.5 130.5t87.5 86t118 30.5q50 0 90.5 -13t72.5 -35.5t56 -50.5v140q-43 37 -94.5 56t-128.5 19t-143.5 -26.5t-115.5 -75t-76.5 -115t-27.5 -146.5q0 -79 27.5 -145.5t76.5 -115.5t115.5 -75t143.5 -26t128.5 19t94.5 55v141q-24 -29 -56 -51.5
t-72.5 -35.5t-90.5 -13q-64 0 -118 31t-87.5 86.5t-33.5 129.5zM371 55l-86 -179q20 11 40 14t27 3q25 0 40 -7.5t15 -26.5q0 -18 -13 -28t-39 -10q-17 0 -33 6t-32 18l-39 -51q27 -22 52.5 -30.5t59.5 -8.5q29 0 55.5 11.5t43.5 34t17 54.5q0 29 -12.5 47t-31 27.5
t-36.5 9.5q-5 0 -10 -0.5t-10 -1.5l72 116z" />
    <glyph glyph-name="Egrave" unicode="&#xc8;" horiz-adv-x="571" 
d="M151 0h353v104h-353v-104zM151 596h353v104h-353v-104zM151 324h333v102h-333v-102zM78 700v-700h116v700h-116zM148 925l180 -150l61 35l-150 160z" />
    <glyph glyph-name="Eacute" unicode="&#xc9;" horiz-adv-x="571" 
d="M151 0h353v104h-353v-104zM151 596h353v104h-353v-104zM151 324h333v102h-333v-102zM78 700v-700h116v700h-116zM432 925l-91 45l-150 -160l61 -35z" />
    <glyph glyph-name="Ecircumflex" unicode="&#xca;" horiz-adv-x="571" 
d="M151 0h353v104h-353v-104zM151 596h353v104h-353v-104zM151 324h333v102h-333v-102zM78 700v-700h116v700h-116zM298 864l103 -91l72 52l-175 140l-175 -140l73 -52z" />
    <glyph glyph-name="Edieresis" unicode="&#xcb;" horiz-adv-x="571" 
d="M151 0h353v104h-353v-104zM151 596h353v104h-353v-104zM151 324h333v102h-333v-102zM78 700v-700h116v700h-116zM339 853q0 -27 20 -46t48 -19q29 0 48.5 19t19.5 46q0 29 -19.5 47.5t-48.5 18.5q-28 0 -48 -18.5t-20 -47.5zM121 853q0 -27 20.5 -46t48.5 -19t48 19
t20 46q0 29 -20 47.5t-48 18.5t-48.5 -18.5t-20.5 -47.5z" />
    <glyph glyph-name="Igrave" unicode="&#xcc;" horiz-adv-x="275" 
d="M78 700v-700h120v700h-120zM-8 925l180 -150l62 35l-150 160z" />
    <glyph glyph-name="Iacute" unicode="&#xcd;" horiz-adv-x="275" 
d="M78 700v-700h120v700h-120zM276 925l-90 45l-150 -160l60 -35z" />
    <glyph glyph-name="Icircumflex" unicode="&#xce;" horiz-adv-x="275" 
d="M78 700v-700h120v700h-120zM137 864l103 -91l72 52l-175 140l-175 -140l73 -52z" />
    <glyph glyph-name="Idieresis" unicode="&#xcf;" horiz-adv-x="275" 
d="M78 700v-700h120v700h-120zM179 838q0 -27 19.5 -46t47.5 -19q29 0 49 19t20 46q0 29 -20 47.5t-49 18.5q-28 0 -47.5 -18.5t-19.5 -47.5zM-39 838q0 -27 20 -46t48 -19t48.5 19t20.5 46q0 29 -20.5 47.5t-48.5 18.5t-48 -18.5t-20 -47.5z" />
    <glyph glyph-name="Eth" unicode="&#xd0;" horiz-adv-x="701" 
d="M5 307h320v85h-320v-85zM78 700v-700h121v700h-121zM304 0q107 0 188 43.5t126.5 122t45.5 184.5t-45.5 184.5t-126.5 122t-188 43.5h-153v-111h150q52 0 96 -15t76.5 -45t51 -75t18.5 -104t-18.5 -104t-51 -74.5t-76.5 -45t-96 -15.5h-150v-111h153z" />
    <glyph glyph-name="Ntilde" unicode="&#xd1;" horiz-adv-x="783" 
d="M589 700v-470l-511 505v-735h116v470l511 -505v735h-116zM198 809l60 -47q0 8 4 20t14.5 21.5t30.5 9.5q24 0 42 -12.5t38.5 -25t47.5 -12.5q28 0 51.5 12t41 30t25.5 36l-56 56q-15 -24 -29.5 -37t-30.5 -13q-21 0 -34.5 7t-26 17t-28.5 17.5t-40 7.5q-26 0 -49.5 -12
t-39.5 -31t-21 -44z" />
    <glyph glyph-name="Ograve" unicode="&#xd2;" horiz-adv-x="803" 
d="M163 350q0 72 31 128.5t84.5 88.5t122.5 32q71 0 124.5 -32t83.5 -88.5t30 -128.5t-30.5 -128t-84 -88.5t-123.5 -32.5q-69 0 -122.5 32.5t-84.5 88.5t-31 128zM38 350q0 -78 27 -145t76 -116t115.5 -76.5t144.5 -27.5q80 0 146 27.5t115 76.5t76 116t27 145
q0 79 -27 145t-76.5 114.5t-115.5 76t-145 27.5q-77 0 -143.5 -27.5t-116 -76t-76.5 -114.5t-27 -145zM270 925l180 -150l61 35l-150 160z" />
    <glyph glyph-name="Oacute" unicode="&#xd3;" horiz-adv-x="803" 
d="M163 350q0 72 31 128.5t84.5 88.5t122.5 32q71 0 124.5 -32t83.5 -88.5t30 -128.5t-30.5 -128t-84 -88.5t-123.5 -32.5q-69 0 -122.5 32.5t-84.5 88.5t-31 128zM38 350q0 -78 27 -145t76 -116t115.5 -76.5t144.5 -27.5q80 0 146 27.5t115 76.5t76 116t27 145
q0 79 -27 145t-76.5 114.5t-115.5 76t-145 27.5q-77 0 -143.5 -27.5t-116 -76t-76.5 -114.5t-27 -145zM539 925l-91 45l-150 -160l61 -35z" />
    <glyph glyph-name="Ocircumflex" unicode="&#xd4;" horiz-adv-x="803" 
d="M163 350q0 72 31 128.5t84.5 88.5t122.5 32q71 0 124.5 -32t83.5 -88.5t30 -128.5t-30.5 -128t-84 -88.5t-123.5 -32.5q-69 0 -122.5 32.5t-84.5 88.5t-31 128zM38 350q0 -78 27 -145t76 -116t115.5 -76.5t144.5 -27.5q80 0 146 27.5t115 76.5t76 116t27 145
q0 79 -27 145t-76.5 114.5t-115.5 76t-145 27.5q-77 0 -143.5 -27.5t-116 -76t-76.5 -114.5t-27 -145zM405 864l103 -91l72 52l-175 140l-175 -140l73 -52z" />
    <glyph glyph-name="Otilde" unicode="&#xd5;" horiz-adv-x="803" 
d="M163 350q0 72 31 128.5t84.5 88.5t122.5 32q71 0 124.5 -32t83.5 -88.5t30 -128.5t-30.5 -128t-84 -88.5t-123.5 -32.5q-69 0 -122.5 32.5t-84.5 88.5t-31 128zM38 350q0 -78 27 -145t76 -116t115.5 -76.5t144.5 -27.5q80 0 146 27.5t115 76.5t76 116t27 145
q0 79 -27 145t-76.5 114.5t-115.5 76t-145 27.5q-77 0 -143.5 -27.5t-116 -76t-76.5 -114.5t-27 -145zM226 820l61 -47q0 8 4 20t14.5 21.5t30.5 9.5q23 0 41.5 -12.5t39 -25t47.5 -12.5q28 0 51.5 12t40.5 30t25 36l-56 56q-15 -24 -29 -37t-30 -13q-21 0 -34.5 7.5t-26 17
t-28.5 17t-40 7.5q-26 0 -50 -12t-40 -31t-21 -44z" />
    <glyph glyph-name="Odieresis" unicode="&#xd6;" horiz-adv-x="803" 
d="M163 350q0 72 31 128.5t84.5 88.5t122.5 32q71 0 124.5 -32t83.5 -88.5t30 -128.5t-30.5 -128t-84 -88.5t-123.5 -32.5q-69 0 -122.5 32.5t-84.5 88.5t-31 128zM38 350q0 -78 27 -145t76 -116t115.5 -76.5t144.5 -27.5q80 0 146 27.5t115 76.5t76 116t27 145
q0 79 -27 145t-76.5 114.5t-115.5 76t-145 27.5q-77 0 -143.5 -27.5t-116 -76t-76.5 -114.5t-27 -145zM442 838q0 -27 20 -46t48 -19q29 0 48.5 19t19.5 46q0 29 -19.5 47.5t-48.5 18.5q-28 0 -48 -18.5t-20 -47.5zM224 838q0 -27 20.5 -46t48.5 -19t48 19t20 46
q0 29 -20 47.5t-48 18.5t-48.5 -18.5t-20.5 -47.5z" />
    <glyph glyph-name="multiply" unicode="&#xd7;" horiz-adv-x="596" 
d="M129 15l169 174l170 -174l71 71l-175 169l175 170l-71 71l-170 -175l-169 175l-71 -71l174 -170l-174 -169z" />
    <glyph glyph-name="Oslash" unicode="&#xd8;" horiz-adv-x="790" 
d="M163 350q0 73 31 129t84.5 88t122.5 32q70 0 123.5 -32t84 -88t30.5 -129t-30.5 -129t-84 -88t-123.5 -32q-69 0 -122.5 32t-84.5 88t-31 129zM38 350q0 -78 27 -145t76 -116t115.5 -76.5t144.5 -27.5q79 0 145 27.5t115.5 76.5t76.5 116t27 145q0 79 -27 145
t-76.5 114.5t-115.5 76t-145 27.5q-78 0 -144.5 -27.5t-115.5 -76t-76 -114.5t-27 -145zM692 753l-648 -760l63 -45l649 760z" />
    <glyph glyph-name="Ugrave" unicode="&#xd9;" horiz-adv-x="656" 
d="M73 700v-470q0 -58 18.5 -103.5t52.5 -77.5t81 -49t103 -17t103 17t81.5 49t53 77.5t18.5 103.5v470h-119v-465q0 -64 -34.5 -104t-102.5 -40q-67 0 -102 40t-35 104v465h-118zM186 923l180 -150l61 35l-150 160z" />
    <glyph glyph-name="Uacute" unicode="&#xda;" horiz-adv-x="656" 
d="M73 700v-470q0 -58 18.5 -103.5t52.5 -77.5t81 -49t103 -17t103 17t81.5 49t53 77.5t18.5 103.5v470h-119v-465q0 -64 -34.5 -104t-102.5 -40q-67 0 -102 40t-35 104v465h-118zM471 923l-92 45l-150 -160l62 -35z" />
    <glyph glyph-name="Ucircumflex" unicode="&#xdb;" horiz-adv-x="656" 
d="M73 700v-470q0 -58 18.5 -103.5t52.5 -77.5t81 -49t103 -17t103 17t81.5 49t53 77.5t18.5 103.5v470h-119v-465q0 -64 -34.5 -104t-102.5 -40q-67 0 -102 40t-35 104v465h-118zM328 864l103 -91l72 52l-175 140l-175 -140l73 -52z" />
    <glyph glyph-name="Udieresis" unicode="&#xdc;" horiz-adv-x="656" 
d="M73 700v-470q0 -58 18.5 -103.5t52.5 -77.5t81 -49t103 -17t103 17t81.5 49t53 77.5t18.5 103.5v470h-119v-465q0 -64 -34.5 -104t-102.5 -40q-67 0 -102 40t-35 104v465h-118zM376 838q0 -27 20.5 -46t47.5 -19q29 0 49 19t20 46q0 29 -20 47.5t-49 18.5
q-27 0 -47.5 -18.5t-20.5 -47.5zM144 838q0 -27 20 -46t48 -19t48 19t20 46q0 29 -20 47.5t-48 18.5t-48 -18.5t-20 -47.5z" />
    <glyph glyph-name="Yacute" unicode="&#xdd;" horiz-adv-x="601" 
d="M443 923l-91 45l-150 -160l61 -35zM463 700l-163 -299l-162 299h-135l238 -406v-294h120v295l237 405h-135z" />
    <glyph glyph-name="Thorn" unicode="&#xde;" horiz-adv-x="575" 
d="M80 700v-700h110v700h-110zM146 466h140q43 0 74.5 -12t49 -37.5t17.5 -65.5q0 -39 -17.5 -64.5t-49 -38t-74.5 -12.5h-140v-101h140q77 0 133.5 26t87.5 75t31 115q0 68 -31 116.5t-87.5 74.5t-133.5 26h-140v-102z" />
    <glyph glyph-name="germandbls" unicode="&#xdf;" horiz-adv-x="580" 
d="M355 -12q42 0 79.5 15.5t66.5 42.5t45.5 63.5t16.5 77.5q0 36 -11.5 61t-29.5 43t-38.5 31.5t-38.5 25t-29.5 24.5t-11.5 30q0 22 10 39.5t25 35t30 38t25.5 48t10.5 67.5q0 56 -27 92.5t-74 54.5t-106 18q-73 0 -126 -25.5t-81.5 -72.5t-28.5 -111v-588h109l-1 575
q0 44 15 71.5t41.5 40t61.5 12.5q28 0 51.5 -8t37.5 -26t14 -49q0 -29 -10.5 -52t-26 -42.5t-31 -38t-26 -39.5t-10.5 -46q0 -26 12 -45.5t30 -34.5t39 -28.5t39.5 -28t30.5 -34t12 -45.5q0 -27 -12.5 -49t-34.5 -35t-50 -13q-18 0 -36 5.5t-34.5 15.5t-30.5 23l-42 -82
q18 -17 40.5 -30t48.5 -20t56 -7z" />
    <glyph glyph-name="agrave" unicode="&#xe0;" horiz-adv-x="509" 
d="M137 136q0 24 12 41.5t35 27t57 9.5q42 0 74 -10.5t63 -33.5v57q-8 10 -29 23t-52.5 23t-71.5 10q-56 0 -101 -18t-70.5 -52.5t-25.5 -86.5q0 -42 20 -72.5t56.5 -47t84.5 -16.5t87 16.5t62 48t23 75.5l-16 53q0 -41 -16 -65t-44 -35t-63 -11q-27 0 -46 7.5t-29 21.5
t-10 35zM114 339q11 7 31.5 17.5t48 18.5t60.5 8q38 0 64.5 -17.5t26.5 -49.5v-316h106v328q0 46 -24.5 78t-67.5 48.5t-100 16.5q-62 0 -110 -18t-79 -37zM94 681l180 -150l62 35l-150 160z" />
    <glyph glyph-name="aacute" unicode="&#xe1;" horiz-adv-x="509" 
d="M137 136q0 24 12 41.5t35 27t57 9.5q42 0 74 -10.5t63 -33.5v57q-8 10 -29 23t-52.5 23t-71.5 10q-56 0 -101 -18t-70.5 -52.5t-25.5 -86.5q0 -42 20 -72.5t56.5 -47t84.5 -16.5t87 16.5t62 48t23 75.5l-16 53q0 -41 -16 -65t-44 -35t-63 -11q-27 0 -46 7.5t-29 21.5
t-10 35zM114 339q11 7 31.5 17.5t48 18.5t60.5 8q38 0 64.5 -17.5t26.5 -49.5v-316h106v328q0 46 -24.5 78t-67.5 48.5t-100 16.5q-62 0 -110 -18t-79 -37zM424 681l-91 45l-150 -160l61 -35z" />
    <glyph glyph-name="acircumflex" unicode="&#xe2;" horiz-adv-x="509" 
d="M137 136q0 24 12 41.5t35 27t57 9.5q42 0 74 -10.5t63 -33.5v57q-8 10 -29 23t-52.5 23t-71.5 10q-56 0 -101 -18t-70.5 -52.5t-25.5 -86.5q0 -42 20 -72.5t56.5 -47t84.5 -16.5t87 16.5t62 48t23 75.5l-16 53q0 -41 -16 -65t-44 -35t-63 -11q-27 0 -46 7.5t-29 21.5
t-10 35zM114 339q11 7 31.5 17.5t48 18.5t60.5 8q38 0 64.5 -17.5t26.5 -49.5v-316h106v328q0 46 -24.5 78t-67.5 48.5t-100 16.5q-62 0 -110 -18t-79 -37zM259 623l103 -92l72 53l-175 140l-175 -140l73 -53z" />
    <glyph glyph-name="atilde" unicode="&#xe3;" horiz-adv-x="509" 
d="M137 136q0 24 12 41.5t35 27t57 9.5q42 0 74 -10.5t63 -33.5v57q-8 10 -29 23t-52.5 23t-71.5 10q-56 0 -101 -18t-70.5 -52.5t-25.5 -86.5q0 -42 20 -72.5t56.5 -47t84.5 -16.5t87 16.5t62 48t23 75.5l-16 53q0 -41 -16 -65t-44 -35t-63 -11q-27 0 -46 7.5t-29 21.5
t-10 35zM114 339q11 7 31.5 17.5t48 18.5t60.5 8q38 0 64.5 -17.5t26.5 -49.5v-316h106v328q0 46 -24.5 78t-67.5 48.5t-100 16.5q-62 0 -110 -18t-79 -37zM82 580l60 -47q0 8 4 20t15 21.5t30 9.5q24 0 42.5 -12.5t39 -25t47.5 -12.5t50.5 12t41 30t25.5 36l-56 56
q-15 -24 -29.5 -37t-30.5 -13q-20 0 -34 7.5t-26 17t-28.5 17t-40.5 7.5q-26 0 -49.5 -12t-39.5 -31t-21 -44z" />
    <glyph glyph-name="adieresis" unicode="&#xe4;" horiz-adv-x="509" 
d="M137 136q0 24 12 41.5t35 27t57 9.5q42 0 74 -10.5t63 -33.5v57q-8 10 -29 23t-52.5 23t-71.5 10q-56 0 -101 -18t-70.5 -52.5t-25.5 -86.5q0 -42 20 -72.5t56.5 -47t84.5 -16.5t87 16.5t62 48t23 75.5l-16 53q0 -41 -16 -65t-44 -35t-63 -11q-27 0 -46 7.5t-29 21.5
t-10 35zM114 339q11 7 31.5 17.5t48 18.5t60.5 8q38 0 64.5 -17.5t26.5 -49.5v-316h106v328q0 46 -24.5 78t-67.5 48.5t-100 16.5q-62 0 -110 -18t-79 -37zM300 597q0 -27 20 -46.5t48 -19.5q29 0 48.5 19.5t19.5 46.5q0 28 -19.5 47t-48.5 19q-28 0 -48 -19t-20 -47z
M82 597q0 -27 20.5 -46.5t48.5 -19.5t48 19.5t20 46.5q0 28 -20 47t-48 19t-48.5 -19t-20.5 -47z" />
    <glyph glyph-name="aring" unicode="&#xe5;" horiz-adv-x="509" 
d="M137 136q0 24 12 41.5t35 27t57 9.5q42 0 74 -10.5t63 -33.5v57q-8 10 -29 23t-52.5 23t-71.5 10q-56 0 -101 -18t-70.5 -52.5t-25.5 -86.5q0 -42 20 -72.5t56.5 -47t84.5 -16.5t87 16.5t62 48t23 75.5l-16 53q0 -41 -16 -65t-44 -35t-63 -11q-27 0 -46 7.5t-29 21.5
t-10 35zM114 339q11 7 31.5 17.5t48 18.5t60.5 8q38 0 64.5 -17.5t26.5 -49.5v-316h106v328q0 46 -24.5 78t-67.5 48.5t-100 16.5q-62 0 -110 -18t-79 -37zM148 638q0 -48 33.5 -77.5t77.5 -29.5t78 29.5t34 77.5q0 47 -34 76.5t-78 29.5t-77.5 -29.5t-33.5 -76.5zM210 638
q0 24 15 37.5t34 13.5t34 -13.5t15 -37.5t-15 -37.5t-34 -13.5t-34 13.5t-15 37.5z" />
    <glyph glyph-name="ae" unicode="&#xe6;" horiz-adv-x="854" 
d="M212 -10q78 0 129 31.5t63 85.5h-11q28 -61 74 -89t117 -28q78 0 135.5 31t95.5 94l-94 37q-21 -36 -54.5 -54.5t-77.5 -18.5q-40 0 -69 17t-44.5 49.5t-16.5 78.5l-21 -19h379q1 4 1.5 12.5t0.5 17.5q0 72 -26.5 124.5t-75 81.5t-113.5 29q-43 0 -81 -13t-67.5 -38
t-48.5 -61h10q-7 56 -47 84.5t-111 28.5q-49 0 -96.5 -14t-92.5 -41l44 -77q19 13 43 23.5t49.5 15.5t47.5 5q45 0 68 -23t23 -67v-65h54q-56 31 -94 43t-80 12q-59 0 -103 -19.5t-69 -55t-25 -82.5q0 -62 49 -99t135 -37zM222 72q-44 0 -64.5 16t-20.5 48q0 38 26.5 58
t77.5 20q33 0 62.5 -8t55.5 -22l-14 27l5 -88l2 67q-7 -60 -38 -89t-92 -29zM459 238q0 46 15.5 79.5t44 52t68.5 18.5q36 0 61.5 -15t40 -42t14.5 -65v-8.5t-2 -7.5l24 30h-287z" />
    <glyph glyph-name="ccedilla" unicode="&#xe7;" horiz-adv-x="484" 
d="M141 230q0 43 19 76t51.5 52t72.5 19q32 0 62 -10t53.5 -27.5t34.5 -40.5v120q-24 23 -65 37t-90 14q-70 0 -126.5 -30.5t-89.5 -84.5t-33 -125q0 -70 33 -124.5t89.5 -85t126.5 -30.5q49 0 90 14t65 38v119q-11 -22 -34 -39.5t-52.5 -28t-63.5 -10.5q-40 0 -72.5 19
t-51.5 52t-19 76zM250 60l-87 -179q20 11 40.5 14t27.5 3q25 0 39.5 -7.5t14.5 -26.5q0 -18 -13 -28t-39 -10q-17 0 -33 6t-32 18l-38 -51q26 -22 52 -30.5t59 -8.5q30 0 56.5 11.5t43 34t16.5 54.5q0 29 -12 47t-30.5 27.5t-36.5 9.5q-6 0 -11 -0.5t-9 -1.5l72 116z" />
    <glyph glyph-name="egrave" unicode="&#xe8;" horiz-adv-x="539" 
d="M99 205h404q1 9 1 16.5v13.5q0 73 -27.5 125.5t-79 81t-123.5 28.5q-65 0 -115 -24t-80.5 -67t-40.5 -100q-2 -12 -3 -24t-1 -25q0 -69 29 -123.5t82.5 -85.5t123.5 -31q63 0 105.5 15.5t72.5 43.5t53 66l-94 37q-13 -22 -32 -38.5t-43.5 -25.5t-56.5 -9
q-38 0 -67.5 16.5t-46 50.5t-16.5 84l2 28q0 40 16.5 69.5t45.5 45t65 15.5q35 0 59 -13.5t37.5 -38t17.5 -56.5h-288v-75zM124 688l180 -150l62 35l-150 160z" />
    <glyph glyph-name="eacute" unicode="&#xe9;" horiz-adv-x="539" 
d="M99 205h404q1 9 1 16.5v13.5q0 73 -27.5 125.5t-79 81t-123.5 28.5q-65 0 -115 -24t-80.5 -67t-40.5 -100q-2 -12 -3 -24t-1 -25q0 -69 29 -123.5t82.5 -85.5t123.5 -31q63 0 105.5 15.5t72.5 43.5t53 66l-94 37q-13 -22 -32 -38.5t-43.5 -25.5t-56.5 -9
q-38 0 -67.5 16.5t-46 50.5t-16.5 84l2 28q0 40 16.5 69.5t45.5 45t65 15.5q35 0 59 -13.5t37.5 -38t17.5 -56.5h-288v-75zM439 688l-91 45l-150 -160l61 -35z" />
    <glyph glyph-name="ecircumflex" unicode="&#xea;" horiz-adv-x="539" 
d="M99 205h404q1 9 1 16.5v13.5q0 73 -27.5 125.5t-79 81t-123.5 28.5q-65 0 -115 -24t-80.5 -67t-40.5 -100q-2 -12 -3 -24t-1 -25q0 -69 29 -123.5t82.5 -85.5t123.5 -31q63 0 105.5 15.5t72.5 43.5t53 66l-94 37q-13 -22 -32 -38.5t-43.5 -25.5t-56.5 -9
q-38 0 -67.5 16.5t-46 50.5t-16.5 84l2 28q0 40 16.5 69.5t45.5 45t65 15.5q35 0 59 -13.5t37.5 -38t17.5 -56.5h-288v-75zM274 622l103 -92l72 53l-175 140l-175 -140l73 -53z" />
    <glyph glyph-name="edieresis" unicode="&#xeb;" horiz-adv-x="539" 
d="M99 205h404q1 9 1 16.5v13.5q0 73 -27.5 125.5t-79 81t-123.5 28.5q-65 0 -115 -24t-80.5 -67t-40.5 -100q-2 -12 -3 -24t-1 -25q0 -69 29 -123.5t82.5 -85.5t123.5 -31q63 0 105.5 15.5t72.5 43.5t53 66l-94 37q-13 -22 -32 -38.5t-43.5 -25.5t-56.5 -9
q-38 0 -67.5 16.5t-46 50.5t-16.5 84l2 28q0 40 16.5 69.5t45.5 45t65 15.5q35 0 59 -13.5t37.5 -38t17.5 -56.5h-288v-75zM315 596q0 -27 20 -46.5t48 -19.5q29 0 48.5 19.5t19.5 46.5q0 28 -19.5 47t-48.5 19q-28 0 -48 -19t-20 -47zM97 596q0 -27 20.5 -46.5t48.5 -19.5
t48 19.5t20 46.5q0 28 -20 47t-48 19t-48.5 -19t-20.5 -47z" />
    <glyph glyph-name="igrave" unicode="&#xec;" horiz-adv-x="267" 
d="M80 460v-460h107v460h-107zM-35 695l180 -150l61 35l-150 160z" />
    <glyph glyph-name="iacute" unicode="&#xed;" horiz-adv-x="267" 
d="M80 460v-460h107v460h-107zM298 695l-91 45l-150 -160l61 -35z" />
    <glyph glyph-name="icircumflex" unicode="&#xee;" horiz-adv-x="267" 
d="M80 460v-460h107v460h-107zM133 629l103 -91l72 52l-175 140l-175 -140l73 -52z" />
    <glyph glyph-name="idieresis" unicode="&#xef;" horiz-adv-x="267" 
d="M80 460v-460h107v460h-107zM174 619q0 -28 20 -47t48 -19q29 0 48.5 19t19.5 47t-19.5 46.5t-48.5 18.5q-28 0 -48 -18.5t-20 -46.5zM-44 619q0 -28 20.5 -47t48.5 -19t48 19t20 47t-20 46.5t-48 18.5t-48.5 -18.5t-20.5 -46.5z" />
    <glyph glyph-name="eth" unicode="&#xf0;" horiz-adv-x="596" 
d="M297 -12q73 0 129 32t88.5 88t32.5 128q0 42 -12 86.5t-36.5 91.5t-62 98.5t-88.5 108.5t-115 118l-74 -63q47 -39 85.5 -76.5t70.5 -75t58 -76t46 -78.5l45 -1q-99 95 -205 95q-61 0 -108 -29.5t-74 -80.5t-27 -118q0 -72 31.5 -128t87.5 -88t128 -32zM298 87
q-40 0 -71 18.5t-48.5 51t-17.5 73.5q0 42 18 75t49 51.5t70 18.5q40 0 70.5 -18.5t48.5 -51.5t18 -75q0 -41 -17.5 -73.5t-48.5 -51t-71 -18.5zM173 505l308 109l-18 50l-307 -109z" />
    <glyph glyph-name="ntilde" unicode="&#xf1;" horiz-adv-x="545" 
d="M178 460h-109v-460h109v460zM365 280v-280h111v293q0 87 -41.5 132t-118.5 45q-52 0 -90.5 -25.5t-60 -68.5t-21.5 -98l34 2q0 31 12.5 54t35.5 36t54 13q44 0 64.5 -26t20.5 -77zM96 579l60 -47q0 8 4 20t14.5 21.5t30.5 9.5q24 0 42 -12.5t38.5 -25t47.5 -12.5
q28 0 51.5 12t41 30t25.5 36l-56 56q-15 -24 -29.5 -37t-30.5 -13q-21 0 -34.5 7.5t-26 17t-28.5 17t-40 7.5q-26 0 -49.5 -12t-39.5 -31t-21 -44z" />
    <glyph glyph-name="ograve" unicode="&#xf2;" horiz-adv-x="564" 
d="M34 230q0 -70 32.5 -124.5t89 -85t126.5 -30.5q71 0 127 30.5t88.5 85t32.5 124.5q0 71 -32.5 125t-88.5 84.5t-127 30.5q-70 0 -126.5 -30.5t-89 -84.5t-32.5 -125zM145 230q0 43 18 76t49 51t70 18t70 -18t49 -51t18 -76t-18 -75.5t-49 -51t-70 -18.5t-70 18.5t-49 51
t-18 75.5zM122 695l180 -150l61 35l-150 160z" />
    <glyph glyph-name="oacute" unicode="&#xf3;" horiz-adv-x="564" 
d="M34 230q0 -70 32.5 -124.5t89 -85t126.5 -30.5q71 0 127 30.5t88.5 85t32.5 124.5q0 71 -32.5 125t-88.5 84.5t-127 30.5q-70 0 -126.5 -30.5t-89 -84.5t-32.5 -125zM145 230q0 43 18 76t49 51t70 18t70 -18t49 -51t18 -76t-18 -75.5t-49 -51t-70 -18.5t-70 18.5t-49 51
t-18 75.5zM442 695l-91 45l-150 -160l61 -35z" />
    <glyph glyph-name="ocircumflex" unicode="&#xf4;" horiz-adv-x="564" 
d="M34 230q0 -70 32.5 -124.5t89 -85t126.5 -30.5q71 0 127 30.5t88.5 85t32.5 124.5q0 71 -32.5 125t-88.5 84.5t-127 30.5q-70 0 -126.5 -30.5t-89 -84.5t-32.5 -125zM145 230q0 43 18 76t49 51t70 18t70 -18t49 -51t18 -76t-18 -75.5t-49 -51t-70 -18.5t-70 18.5t-49 51
t-18 75.5zM282 637l102 -92l73 53l-175 140l-175 -140l72 -53z" />
    <glyph glyph-name="otilde" unicode="&#xf5;" horiz-adv-x="564" 
d="M34 230q0 -70 32.5 -124.5t89 -85t126.5 -30.5q71 0 127 30.5t88.5 85t32.5 124.5q0 71 -32.5 125t-88.5 84.5t-127 30.5q-70 0 -126.5 -30.5t-89 -84.5t-32.5 -125zM145 230q0 43 18 76t49 51t70 18t70 -18t49 -51t18 -76t-18 -75.5t-49 -51t-70 -18.5t-70 18.5t-49 51
t-18 75.5zM104 579l61 -47q0 8 4 20t14.5 21.5t30.5 9.5q23 0 41.5 -12.5t39 -25t47.5 -12.5q28 0 51.5 12t40.5 30t25 36l-56 56q-15 -24 -29 -37t-30 -13q-21 0 -34.5 7.5t-26 17t-28.5 17t-40 7.5q-26 0 -50 -12t-40 -31t-21 -44z" />
    <glyph glyph-name="odieresis" unicode="&#xf6;" horiz-adv-x="564" 
d="M34 230q0 -70 32.5 -124.5t89 -85t126.5 -30.5q71 0 127 30.5t88.5 85t32.5 124.5q0 71 -32.5 125t-88.5 84.5t-127 30.5q-70 0 -126.5 -30.5t-89 -84.5t-32.5 -125zM145 230q0 43 18 76t49 51t70 18t70 -18t49 -51t18 -76t-18 -75.5t-49 -51t-70 -18.5t-70 18.5t-49 51
t-18 75.5zM322 619q0 -28 20.5 -47t48.5 -19t48 19t20 47t-20 46.5t-48 18.5t-48.5 -18.5t-20.5 -46.5zM105 619q0 -28 20 -47t48 -19q29 0 48.5 19t19.5 47t-19.5 46.5t-48.5 18.5q-28 0 -48 -18.5t-20 -46.5z" />
    <glyph glyph-name="divide" unicode="&#xf7;" horiz-adv-x="630" 
d="M243 491q0 -28 20.5 -49t50.5 -21t50.5 21t20.5 49q0 29 -20.5 49.5t-50.5 20.5t-50.5 -20.5t-20.5 -49.5zM243 81q0 -28 20.5 -49t50.5 -21t50.5 21t20.5 49q0 29 -20.5 49.5t-50.5 20.5t-50.5 -20.5t-20.5 -49.5zM46 239h535v102h-535v-102z" />
    <glyph glyph-name="oslash" unicode="&#xf8;" horiz-adv-x="546" 
d="M34 230q0 -71 33 -125.5t89 -84.5t126 -30t126 30t89 84.5t33 125.5q0 73 -33 126.5t-89 83.5t-126 30t-126 -30t-89 -83.5t-33 -126.5zM140 230q0 43 19 76.5t51 52.5t72 19t72 -19t51 -52.5t19 -76.5q0 -44 -19 -77t-51 -51.5t-72 -18.5t-72 18.5t-51 51.5t-19 77z
M446 503l-390 -524l50 -25l390 524z" />
    <glyph glyph-name="ugrave" unicode="&#xf9;" horiz-adv-x="545" 
d="M368 0h108v460h-108v-460zM180 180v280h-111v-292q0 -88 42 -133t118 -45q52 0 90.5 25.5t60 69t21.5 98.5l-33 -3q0 -30 -13 -53.5t-36 -36.5t-53 -13q-45 0 -65.5 26.5t-20.5 76.5zM142 695l180 -150l62 35l-150 160z" />
    <glyph glyph-name="uacute" unicode="&#xfa;" horiz-adv-x="545" 
d="M368 0h108v460h-108v-460zM180 180v280h-111v-292q0 -88 42 -133t118 -45q52 0 90.5 25.5t60 69t21.5 98.5l-33 -3q0 -30 -13 -53.5t-36 -36.5t-53 -13q-45 0 -65.5 26.5t-20.5 76.5zM402 695l-90 45l-150 -160l60 -35z" />
    <glyph glyph-name="ucircumflex" unicode="&#xfb;" horiz-adv-x="545" 
d="M368 0h108v460h-108v-460zM180 180v280h-111v-292q0 -88 42 -133t118 -45q52 0 90.5 25.5t60 69t21.5 98.5l-33 -3q0 -30 -13 -53.5t-36 -36.5t-53 -13q-45 0 -65.5 26.5t-20.5 76.5zM272 637l103 -92l72 53l-175 140l-175 -140l73 -53z" />
    <glyph glyph-name="udieresis" unicode="&#xfc;" horiz-adv-x="545" 
d="M368 0h108v460h-108v-460zM180 180v280h-111v-292q0 -88 42 -133t118 -45q52 0 90.5 25.5t60 69t21.5 98.5l-33 -3q0 -30 -13 -53.5t-36 -36.5t-53 -13q-45 0 -65.5 26.5t-20.5 76.5zM314 611q0 -27 19.5 -46.5t47.5 -19.5q29 0 49 19.5t20 46.5q0 28 -20 47t-49 19
q-28 0 -47.5 -19t-19.5 -47zM96 611q0 -27 20 -46.5t48 -19.5t48.5 19.5t20.5 46.5q0 28 -20.5 47t-48.5 19t-48 -19t-20 -47z" />
    <glyph glyph-name="yacute" unicode="&#xfd;" horiz-adv-x="473" 
d="M476 460h-116l-144 -361l51 -3l-147 364h-124l186 -406l-121 -274h115zM379 695l-91 45l-150 -160l61 -35z" />
    <glyph glyph-name="thorn" unicode="&#xfe;" horiz-adv-x="589" 
d="M174 -220v1000h-109v-1000h109zM555 230q0 76 -31 129.5t-82 82t-111 28.5q-57 0 -101 -29t-69.5 -82.5t-25.5 -128.5q0 -74 25.5 -128t69.5 -83t101 -29q60 0 111 28.5t82 82.5t31 129zM443 230q0 -46 -19 -79t-50 -50t-69 -17q-32 0 -62 17t-49.5 49.5t-19.5 79.5
t19.5 79.5t49.5 49.5t62 17q38 0 69 -17t50 -50t19 -79z" />
    <glyph glyph-name="ydieresis" unicode="&#xff;" horiz-adv-x="473" 
d="M476 460h-116l-144 -361l51 -3l-147 364h-124l186 -406l-121 -274h115zM277 596q0 -27 20 -46.5t48 -19.5q29 0 48.5 19.5t19.5 46.5q0 28 -19.5 47t-48.5 19q-28 0 -48 -19t-20 -47zM59 596q0 -27 20.5 -46.5t48.5 -19.5t48 19.5t20 46.5q0 28 -20 47t-48 19t-48.5 -19
t-20.5 -47z" />
    <glyph glyph-name="Amacron" unicode="&#x100;" horiz-adv-x="690" 
d="M162 180h370l-22 100h-325zM345 502l112 -260l2 -29l95 -213h134l-343 739l-342 -739h133l97 219l2 26zM166 799h358v97h-358v-97z" />
    <glyph glyph-name="amacron" unicode="&#x101;" horiz-adv-x="509" 
d="M137 136q0 24 12 41.5t35 27t57 9.5q42 0 74 -10.5t63 -33.5v57q-8 10 -29 23t-52.5 23t-71.5 10q-56 0 -101 -18t-70.5 -52.5t-25.5 -86.5q0 -42 20 -72.5t56.5 -47t84.5 -16.5t87 16.5t62 48t23 75.5l-16 53q0 -41 -16 -65t-44 -35t-63 -11q-27 0 -46 7.5t-29 21.5
t-10 35zM114 339q11 7 31.5 17.5t48 18.5t60.5 8q38 0 64.5 -17.5t26.5 -49.5v-316h106v328q0 46 -24.5 78t-67.5 48.5t-100 16.5q-62 0 -110 -18t-79 -37zM80 546h359v98h-359v-98z" />
    <glyph glyph-name="Abreve" unicode="&#x102;" horiz-adv-x="690" 
d="M162 180h370l-22 100h-325zM345 502l112 -260l2 -29l95 -213h134l-343 739l-342 -739h133l97 219l2 26zM185 941q0 -36 18 -69t54 -53t88 -20q53 0 88.5 20t54 53t18.5 69h-83q0 -14 -7.5 -30t-24.5 -27t-46 -11t-46 11t-24.5 27t-7.5 30h-82z" />
    <glyph glyph-name="abreve" unicode="&#x103;" horiz-adv-x="509" 
d="M137 136q0 24 12 41.5t35 27t57 9.5q42 0 74 -10.5t63 -33.5v57q-8 10 -29 23t-52.5 23t-71.5 10q-56 0 -101 -18t-70.5 -52.5t-25.5 -86.5q0 -42 20 -72.5t56.5 -47t84.5 -16.5t87 16.5t62 48t23 75.5l-16 53q0 -41 -16 -65t-44 -35t-63 -11q-27 0 -46 7.5t-29 21.5
t-10 35zM114 339q11 7 31.5 17.5t48 18.5t60.5 8q38 0 64.5 -17.5t26.5 -49.5v-316h106v328q0 46 -24.5 78t-67.5 48.5t-100 16.5q-62 0 -110 -18t-79 -37zM99 674q0 -37 18 -69.5t54 -53t88 -20.5q53 0 89 20.5t54 53t18 69.5h-82q0 -15 -7.5 -31t-25 -27t-46.5 -11
q-28 0 -45.5 11t-25 27t-7.5 31h-82z" />
    <glyph glyph-name="Aogonek" unicode="&#x104;" horiz-adv-x="690" 
d="M162 180h370l-22 100h-325zM345 502l112 -260l2 -29l95 -213h134l-343 739l-342 -739h133l97 219l2 26zM673 -122q-10 -10 -21 -15t-29 -5q-21 0 -32 10.5t-11 34.5q0 17 11 34.5t31 34t46 28.5l-41 25q-35 -18 -66 -40t-50 -48t-19 -57q0 -30 14.5 -53t41 -35t65.5 -12
q35 0 58.5 12.5t34.5 27.5z" />
    <glyph glyph-name="aogonek" unicode="&#x105;" horiz-adv-x="509" 
d="M137 136q0 24 12 41.5t35 27t57 9.5q42 0 74 -10.5t63 -33.5v57q-8 10 -29 23t-52.5 23t-71.5 10q-60 0 -104.5 -18t-68.5 -52t-24 -81t21.5 -78.5t58 -47.5t81.5 -16q48 0 87 16.5t62 48t23 75.5l-16 53q0 -41 -16 -65t-44 -35t-63 -11q-23 0 -42.5 7.5t-31 21.5
t-11.5 35zM114 339q11 7 31.5 17.5t48 18.5t60.5 8q38 0 64.5 -17.5t26.5 -49.5v-316h106v328q0 46 -24.5 78t-67.5 48.5t-100 16.5q-62 0 -110 -18t-79 -37zM444 -122q-10 -10 -21 -15t-29 -5q-20 0 -31.5 10.5t-11.5 34.5q0 17 11 34.5t31 34t46 28.5l-41 25
q-35 -18 -65.5 -40t-50 -48t-19.5 -57q0 -30 14.5 -53t41.5 -35t65 -12q36 0 59 12.5t34 27.5z" />
    <glyph glyph-name="Cacute" unicode="&#x106;" horiz-adv-x="691" 
d="M166 350q0 75 33.5 130.5t87.5 86t118 30.5q50 0 90.5 -13t72.5 -35.5t56 -50.5v140q-43 37 -94.5 56t-128.5 19t-143.5 -26.5t-115.5 -75t-76.5 -115t-27.5 -146.5q0 -79 27.5 -145.5t76.5 -115.5t115.5 -75t143.5 -26t128.5 19t94.5 55v141q-24 -29 -56 -51.5
t-72.5 -35.5t-90.5 -13q-64 0 -118 31t-87.5 86.5t-33.5 129.5zM531 923l-91 45l-150 -160l61 -35z" />
    <glyph glyph-name="cacute" unicode="&#x107;" horiz-adv-x="484" 
d="M141 230q0 43 19 76t51.5 52t72.5 19q32 0 62 -10t53.5 -27.5t34.5 -40.5v120q-24 23 -65 37t-90 14q-70 0 -126.5 -30.5t-89.5 -84.5t-33 -125q0 -70 33 -124.5t89.5 -85t126.5 -30.5q49 0 90 14t65 38v119q-11 -22 -34 -39.5t-52.5 -28t-63.5 -10.5q-40 0 -72.5 19
t-51.5 52t-19 76zM409 680l-91 45l-150 -160l61 -35z" />
    <glyph glyph-name="Ccircumflex" unicode="&#x108;" horiz-adv-x="691" 
d="M166 350q0 75 33.5 130.5t87.5 86t118 30.5q50 0 90.5 -13t72.5 -35.5t56 -50.5v140q-43 37 -94.5 56t-128.5 19t-143.5 -26.5t-115.5 -75t-76.5 -115t-27.5 -146.5q0 -79 27.5 -145.5t76.5 -115.5t115.5 -75t143.5 -26t128.5 19t94.5 55v141q-24 -29 -56 -51.5
t-72.5 -35.5t-90.5 -13q-64 0 -118 31t-87.5 86.5t-33.5 129.5zM401 864l103 -91l72 52l-175 140l-175 -140l73 -52z" />
    <glyph glyph-name="ccircumflex" unicode="&#x109;" horiz-adv-x="484" 
d="M141 230q0 43 19 76t51.5 52t72.5 19q32 0 62 -10t53.5 -27.5t34.5 -40.5v120q-24 23 -65 37t-90 14q-70 0 -126.5 -30.5t-89.5 -84.5t-33 -125q0 -70 33 -124.5t89.5 -85t126.5 -30.5q49 0 90 14t65 38v119q-11 -22 -34 -39.5t-52.5 -28t-63.5 -10.5q-40 0 -72.5 19
t-51.5 52t-19 76zM267 622l102 -92l73 53l-175 140l-175 -140l72 -53z" />
    <glyph glyph-name="Cdotaccent" unicode="&#x10a;" horiz-adv-x="691" 
d="M166 350q0 75 33.5 130.5t87.5 86t118 30.5q50 0 90.5 -13t72.5 -35.5t56 -50.5v140q-43 37 -94.5 56t-128.5 19t-143.5 -26.5t-115.5 -75t-76.5 -115t-27.5 -146.5q0 -79 27.5 -145.5t76.5 -115.5t115.5 -75t143.5 -26t128.5 19t94.5 55v141q-24 -29 -56 -51.5
t-72.5 -35.5t-90.5 -13q-64 0 -118 31t-87.5 86.5t-33.5 129.5zM323 838q0 -27 20.5 -46t47.5 -19q29 0 49 19t20 46q0 29 -20 47.5t-49 18.5q-27 0 -47.5 -18.5t-20.5 -47.5z" />
    <glyph glyph-name="cdotaccent" unicode="&#x10b;" horiz-adv-x="484" 
d="M141 230q0 43 19 76t51.5 52t72.5 19q32 0 62 -10t53.5 -27.5t34.5 -40.5v120q-24 23 -65 37t-90 14q-70 0 -126.5 -30.5t-89.5 -84.5t-33 -125q0 -70 33 -124.5t89.5 -85t126.5 -30.5q49 0 90 14t65 38v119q-11 -22 -34 -39.5t-52.5 -28t-63.5 -10.5q-40 0 -72.5 19
t-51.5 52t-19 76zM201 599q0 -28 20.5 -47t47.5 -19q29 0 49 19t20 47t-20 46.5t-49 18.5q-27 0 -47.5 -18.5t-20.5 -46.5z" />
    <glyph glyph-name="Ccaron" unicode="&#x10c;" horiz-adv-x="691" 
d="M166 350q0 75 33.5 130.5t87.5 86t118 30.5q50 0 90.5 -13t72.5 -35.5t56 -50.5v140q-43 37 -94.5 56t-128.5 19t-143.5 -26.5t-115.5 -75t-76.5 -115t-27.5 -146.5q0 -79 27.5 -145.5t76.5 -115.5t115.5 -75t143.5 -26t128.5 19t94.5 55v141q-24 -29 -56 -51.5
t-72.5 -35.5t-90.5 -13q-64 0 -118 31t-87.5 86.5t-33.5 129.5zM401 874l-102 91l-73 -52l175 -140l175 140l-72 52z" />
    <glyph glyph-name="ccaron" unicode="&#x10d;" horiz-adv-x="484" 
d="M141 230q0 43 19 76t51.5 52t72.5 19q32 0 62 -10t53.5 -27.5t34.5 -40.5v120q-24 23 -65 37t-90 14q-70 0 -126.5 -30.5t-89.5 -84.5t-33 -125q0 -70 33 -124.5t89.5 -85t126.5 -30.5q49 0 90 14t65 38v119q-11 -22 -34 -39.5t-52.5 -28t-63.5 -10.5q-40 0 -72.5 19
t-51.5 52t-19 76zM267 632l-103 91l-72 -53l175 -140l175 140l-73 53z" />
    <glyph glyph-name="Dcaron" unicode="&#x10e;" horiz-adv-x="701" 
d="M78 700v-700h121v700h-121zM304 0q107 0 188 43.5t126.5 122t45.5 184.5t-45.5 184.5t-126.5 122t-188 43.5h-153v-111h150q52 0 96 -15t76.5 -45t51 -75t18.5 -104t-18.5 -104t-51 -74.5t-76.5 -45t-96 -15.5h-150v-111h153zM348 874l-102 91l-73 -52l175 -140l175 140
l-72 52z" />
    <glyph glyph-name="dcaron" unicode="&#x10f;" horiz-adv-x="589" 
d="M415 780v-780h109v780h-109zM34 230q0 -75 31 -129t82.5 -82.5t110.5 -28.5q58 0 101.5 29t69 83t25.5 128q0 75 -25.5 128.5t-69 82.5t-101.5 29q-59 0 -110.5 -28.5t-82.5 -82t-31 -129.5zM146 230q0 46 19 79t50.5 50t68.5 17q32 0 62 -17t49.5 -49.5t19.5 -79.5
t-19.5 -79.5t-49.5 -49.5t-62 -17q-37 0 -68.5 17t-50.5 50t-19 79zM642 780l-88 -259l80 -22l117 250z" />
    <glyph glyph-name="Dcroat" unicode="&#x110;" horiz-adv-x="701" 
d="M5 305h318v85h-318v-85zM78 700v-700h121v700h-121zM304 0q107 0 188 43.5t126.5 122t45.5 184.5t-45.5 184.5t-126.5 122t-188 43.5h-153v-111h150q52 0 96 -15t76.5 -45t51 -75t18.5 -104t-18.5 -104t-51 -74.5t-76.5 -45t-96 -15.5h-150v-111h153z" />
    <glyph glyph-name="dcroat" unicode="&#x111;" horiz-adv-x="589" 
d="M295 580h323v85h-323v-85zM415 780v-780h109v780h-109zM34 230q0 -75 31 -129t82.5 -82.5t110.5 -28.5q58 0 101.5 29t69 83t25.5 128q0 75 -25.5 128.5t-69 82.5t-101.5 29q-59 0 -110.5 -28.5t-82.5 -82t-31 -129.5zM146 230q0 46 19 79t50.5 50t68.5 17q24 0 47 -9.5
t42 -28.5t30.5 -46t11.5 -62t-11.5 -62t-30.5 -46t-42 -28.5t-47 -9.5q-37 0 -68.5 17t-50.5 50t-19 79z" />
    <glyph glyph-name="Emacron" unicode="&#x112;" horiz-adv-x="571" 
d="M151 0h353v104h-353v-104zM151 596h353v104h-353v-104zM151 324h333v102h-333v-102zM78 700v-700h116v700h-116zM111 773h359v97h-359v-97z" />
    <glyph glyph-name="emacron" unicode="&#x113;" horiz-adv-x="539" 
d="M99 205h404q1 9 1 16.5v13.5q0 73 -27.5 125.5t-79 81t-123.5 28.5q-65 0 -115 -24t-80.5 -67t-40.5 -100q-2 -12 -3 -24t-1 -25q0 -69 29 -123.5t82.5 -85.5t123.5 -31q63 0 105.5 15.5t72.5 43.5t53 66l-94 37q-13 -22 -32 -38.5t-43.5 -25.5t-56.5 -9
q-38 0 -67.5 16.5t-46 50.5t-16.5 84l2 28q0 40 16.5 69.5t45.5 45t65 15.5q35 0 59 -13.5t37.5 -38t17.5 -56.5h-288v-75zM95 530h359v98h-359v-98z" />
    <glyph glyph-name="Ebreve" unicode="&#x114;" horiz-adv-x="571" 
d="M151 0h353v104h-353v-104zM151 596h353v104h-353v-104zM151 324h333v102h-333v-102zM78 700v-700h116v700h-116zM130 915q0 -36 18 -69t54.5 -53t88.5 -20q53 0 88.5 20t53.5 53t18 69h-82q0 -15 -7.5 -30.5t-25 -27t-45.5 -11.5q-29 0 -46.5 11.5t-25 27t-7.5 30.5h-82z
" />
    <glyph glyph-name="ebreve" unicode="&#x115;" horiz-adv-x="539" 
d="M99 205h404q1 9 1 16.5v13.5q0 73 -27.5 125.5t-79 81t-123.5 28.5q-65 0 -115 -24t-80.5 -67t-40.5 -100q-2 -12 -3 -24t-1 -25q0 -69 29 -123.5t82.5 -85.5t123.5 -31q63 0 105.5 15.5t72.5 43.5t53 66l-94 37q-13 -22 -32 -38.5t-43.5 -25.5t-56.5 -9
q-38 0 -67.5 16.5t-46 50.5t-16.5 84l2 28q0 40 16.5 69.5t45.5 45t65 15.5q35 0 59 -13.5t37.5 -38t17.5 -56.5h-288v-75zM114 673q0 -37 18 -69.5t54 -53t88 -20.5q53 0 89 20.5t54 53t18 69.5h-82q0 -15 -7.5 -31t-25 -27t-46.5 -11q-28 0 -45.5 11t-25 27t-7.5 31h-82z
" />
    <glyph glyph-name="Edotaccent" unicode="&#x116;" horiz-adv-x="571" 
d="M151 0h353v104h-353v-104zM151 596h353v104h-353v-104zM151 324h333v102h-333v-102zM78 700v-700h116v700h-116zM222 838q0 -27 20.5 -46t48.5 -19t48 19t20 46q0 29 -20 47.5t-48 18.5t-48.5 -18.5t-20.5 -47.5z" />
    <glyph glyph-name="edotaccent" unicode="&#x117;" horiz-adv-x="539" 
d="M99 205h404q1 9 1 16.5v13.5q0 73 -27.5 125.5t-79 81t-123.5 28.5q-65 0 -115 -24t-80.5 -67t-40.5 -100q-2 -12 -3 -24t-1 -25q0 -69 29 -123.5t82.5 -85.5t123.5 -31q63 0 105.5 15.5t72.5 43.5t53 66l-94 37q-13 -22 -32 -38.5t-43.5 -25.5t-56.5 -9
q-38 0 -67.5 16.5t-46 50.5t-16.5 84l2 28q0 40 16.5 69.5t45.5 45t65 15.5q35 0 59 -13.5t37.5 -38t17.5 -56.5h-288v-75zM206 596q0 -27 20.5 -46.5t47.5 -19.5q29 0 49 19.5t20 46.5q0 28 -20 47t-49 19q-27 0 -47.5 -19t-20.5 -47z" />
    <glyph glyph-name="Eogonek" unicode="&#x118;" horiz-adv-x="571" 
d="M151 0h353v104h-353v-104zM151 596h353v104h-353v-104zM151 324h333v102h-333v-102zM78 700v-700h116v700h-116zM379 -122q-10 -10 -21 -15t-29 -5q-20 0 -31.5 10.5t-11.5 34.5q0 17 11 34.5t31 34t46 28.5l-41 25q-35 -18 -65.5 -40t-50 -48t-19.5 -57q0 -30 14.5 -53
t41.5 -35t65 -12q36 0 59 12.5t34 27.5z" />
    <glyph glyph-name="eogonek" unicode="&#x119;" horiz-adv-x="539" 
d="M99 205h404q1 9 1 16.5v13.5q0 73 -27.5 125.5t-79 81t-123.5 28.5q-65 0 -115 -24t-80.5 -67t-40.5 -100q-2 -12 -3 -24t-1 -25q0 -69 29 -123.5t82.5 -85.5t123.5 -31q47 0 79.5 10.5t57 28t46.5 40t48 46.5l-94 37q-13 -22 -32 -38.5t-43.5 -25.5t-56.5 -9
q-38 0 -67.5 16.5t-46 50.5t-16.5 84l2 28q0 40 16.5 69.5t45.5 45t65 15.5q35 0 59 -13.5t37.5 -38t17.5 -56.5h-288v-75zM474 -52q-10 -10 -21 -15t-29 -5q-20 0 -31.5 10t-11.5 27q0 18 11 34t37 42.5t70 73.5l-71 -20q-23 -19 -47 -37.5t-44 -37.5t-32 -39.5t-12 -43.5
q0 -31 16.5 -50.5t42.5 -28t54 -8.5q36 0 63 12.5t38 27.5z" />
    <glyph glyph-name="Ecaron" unicode="&#x11a;" horiz-adv-x="571" 
d="M151 0h353v104h-353v-104zM151 596h353v104h-353v-104zM151 324h333v102h-333v-102zM78 700v-700h116v700h-116zM291 874l-103 91l-72 -52l175 -140l175 140l-73 52z" />
    <glyph glyph-name="ecaron" unicode="&#x11b;" horiz-adv-x="539" 
d="M99 205h404q1 9 1 16.5v13.5q0 73 -27.5 125.5t-79 81t-123.5 28.5q-65 0 -115 -24t-80.5 -67t-40.5 -100q-2 -12 -3 -24t-1 -25q0 -69 29 -123.5t82.5 -85.5t123.5 -31q63 0 105.5 15.5t72.5 43.5t53 66l-94 37q-13 -22 -32 -38.5t-43.5 -25.5t-56.5 -9
q-38 0 -67.5 16.5t-46 50.5t-16.5 84l2 28q0 40 16.5 69.5t45.5 45t65 15.5q35 0 59 -13.5t37.5 -38t17.5 -56.5h-288v-75zM274 632l-102 91l-73 -53l175 -140l175 140l-72 53z" />
    <glyph glyph-name="Gcircumflex" unicode="&#x11c;" horiz-adv-x="791" 
d="M411 266h215q-9 -35 -27 -66t-45 -55t-64 -37t-84 -13q-69 0 -124 32t-87 89.5t-32 133.5q0 77 32.5 133.5t88 88t122.5 31.5q73 0 124.5 -30t80.5 -80l96 64q-31 49 -75 83.5t-100.5 53.5t-125.5 19q-79 0 -146 -26.5t-117 -75t-77.5 -115t-27.5 -146.5t27 -147
t76.5 -116t116.5 -75.5t146 -26.5q84 0 149 30.5t109 83.5t66 121.5t20 145.5h-337v-100zM406 864l103 -91l72 52l-175 140l-175 -140l73 -52z" />
    <glyph glyph-name="gcircumflex" unicode="&#x11d;" horiz-adv-x="586" 
d="M43 -31q2 -60 31 -106t82 -71.5t127 -25.5q63 0 117 26.5t87.5 80.5t33.5 137v450h-106v-450q0 -52 -19.5 -85t-50.5 -49t-64 -16q-39 0 -68 14.5t-45 39t-17 55.5h-108zM34 233q0 -76 31 -129t82.5 -81t110.5 -28q58 0 101.5 28.5t69 82t25.5 127.5q0 75 -25.5 127.5
t-69 81t-101.5 28.5q-59 0 -110.5 -28t-82.5 -80.5t-31 -128.5zM146 233q0 46 19 78t50.5 48.5t68.5 16.5q24 0 47 -9t42 -27.5t30.5 -45t11.5 -61.5q0 -47 -19.5 -79t-49.5 -48.5t-62 -16.5q-37 0 -68.5 16.5t-50.5 49t-19 78.5zM286 622l102 -92l73 53l-175 140l-175 -140
l72 -53z" />
    <glyph glyph-name="Gbreve" unicode="&#x11e;" horiz-adv-x="791" 
d="M411 266h215q-9 -35 -27 -66t-45 -55t-64 -37t-84 -13q-69 0 -124 32t-87 89.5t-32 133.5q0 77 32.5 133.5t88 88t122.5 31.5q73 0 124.5 -30t80.5 -80l96 64q-31 49 -75 83.5t-100.5 53.5t-125.5 19q-79 0 -146 -26.5t-117 -75t-77.5 -115t-27.5 -146.5t27 -147
t76.5 -116t116.5 -75.5t146 -26.5q84 0 149 30.5t109 83.5t66 121.5t20 145.5h-337v-100zM246 915q0 -36 18 -69t54 -53t88 -20q53 0 89 20t54 53t18 69h-82q0 -15 -7.5 -30.5t-25 -27t-46.5 -11.5q-28 0 -45.5 11.5t-25 27t-7.5 30.5h-82z" />
    <glyph glyph-name="gbreve" unicode="&#x11f;" horiz-adv-x="586" 
d="M43 -31q2 -60 31 -106t82 -71.5t127 -25.5q63 0 117 26.5t87.5 80.5t33.5 137v450h-106v-450q0 -52 -19.5 -85t-50.5 -49t-64 -16q-39 0 -68 14.5t-45 39t-17 55.5h-108zM34 233q0 -76 31 -129t82.5 -81t110.5 -28q58 0 101.5 28.5t69 82t25.5 127.5q0 75 -25.5 127.5
t-69 81t-101.5 28.5q-59 0 -110.5 -28t-82.5 -80.5t-31 -128.5zM146 233q0 46 19 78t50.5 48.5t68.5 16.5q24 0 47 -9t42 -27.5t30.5 -45t11.5 -61.5q0 -47 -19.5 -79t-49.5 -48.5t-62 -16.5q-37 0 -68.5 16.5t-50.5 49t-19 78.5zM125 673q0 -37 18 -69.5t54.5 -53
t88.5 -20.5q53 0 88.5 20.5t53.5 53t18 69.5h-82q0 -15 -7.5 -31t-25 -27t-45.5 -11q-29 0 -46.5 11t-25 27t-7.5 31h-82z" />
    <glyph glyph-name="Gdotaccent" unicode="&#x120;" horiz-adv-x="791" 
d="M411 266h215q-9 -35 -27 -66t-45 -55t-64 -37t-84 -13q-69 0 -124 32t-87 89.5t-32 133.5q0 77 32.5 133.5t88 88t122.5 31.5q73 0 124.5 -30t80.5 -80l96 64q-31 49 -75 83.5t-100.5 53.5t-125.5 19q-79 0 -146 -26.5t-117 -75t-77.5 -115t-27.5 -146.5t27 -147
t76.5 -116t116.5 -75.5t146 -26.5q84 0 149 30.5t109 83.5t66 121.5t20 145.5h-337v-100zM338 838q0 -27 20.5 -46t47.5 -19q29 0 49 19t20 46q0 29 -20 47.5t-49 18.5q-27 0 -47.5 -18.5t-20.5 -47.5z" />
    <glyph glyph-name="gdotaccent" unicode="&#x121;" horiz-adv-x="586" 
d="M43 -31q2 -60 31 -106t82 -71.5t127 -25.5q63 0 117 26.5t87.5 80.5t33.5 137v450h-106v-450q0 -52 -19.5 -85t-50.5 -49t-64 -16q-39 0 -68 14.5t-45 39t-17 55.5h-108zM34 233q0 -76 31 -129t82.5 -81t110.5 -28q58 0 101.5 28.5t69 82t25.5 127.5q0 75 -25.5 127.5
t-69 81t-101.5 28.5q-59 0 -110.5 -28t-82.5 -80.5t-31 -128.5zM146 233q0 46 19 78t50.5 48.5t68.5 16.5q24 0 47 -9t42 -27.5t30.5 -45t11.5 -61.5q0 -47 -19.5 -79t-49.5 -48.5t-62 -16.5q-37 0 -68.5 16.5t-50.5 49t-19 78.5zM225 626q0 -27 20 -46.5t48 -19.5
q29 0 48.5 19.5t19.5 46.5q0 28 -19.5 47t-48.5 19q-28 0 -48 -19t-20 -47z" />
    <glyph glyph-name="uni0122" unicode="&#x122;" horiz-adv-x="791" 
d="M411 266h215q-9 -35 -27 -66t-45 -55t-64 -37t-84 -13q-69 0 -124 32t-87 89.5t-32 133.5q0 77 32.5 133.5t88 88t122.5 31.5q73 0 124.5 -30t80.5 -80l96 64q-31 49 -75 83.5t-100.5 53.5t-125.5 19q-79 0 -146 -26.5t-117 -75t-77.5 -115t-27.5 -146.5t27 -147
t76.5 -116t116.5 -75.5t146 -26.5q84 0 149 30.5t109 83.5t66 121.5t20 145.5h-337v-100zM381 -75l-88 -259l81 -22l116 250z" />
    <glyph glyph-name="uni0123" unicode="&#x123;" horiz-adv-x="570" 
d="M43 -31q2 -60 31 -106t82 -71.5t127 -25.5q63 0 117 26.5t87.5 80.5t33.5 137v450h-106v-450q0 -52 -19.5 -85t-50.5 -49t-64 -16q-39 0 -68 14.5t-45 39t-17 55.5h-108zM34 233q0 -76 31 -129t82.5 -81t110.5 -28q58 0 101.5 28.5t69 82t25.5 127.5q0 75 -25.5 127.5
t-69 81t-101.5 28.5q-59 0 -110.5 -28t-82.5 -80.5t-31 -128.5zM146 233q0 46 19 78t50.5 48.5t68.5 16.5q24 0 47 -9t42 -27.5t30.5 -45t11.5 -61.5q0 -47 -19.5 -79t-49.5 -48.5t-62 -16.5q-37 0 -68.5 16.5t-50.5 49t-19 78.5zM293 544l127 242l-76 35l-153 -229z" />
    <glyph glyph-name="Hcircumflex" unicode="&#x124;" horiz-adv-x="744" 
d="M125 321h500v109h-500v-109zM548 700v-700h118v700h-118zM78 700v-700h118v700h-118zM372 864l103 -91l72 52l-175 140l-175 -140l73 -52z" />
    <glyph glyph-name="hcircumflex" unicode="&#x125;" horiz-adv-x="543" 
d="M178 780h-109v-780h109v780zM365 280v-280h109v295q0 59 -18 98.5t-53 59.5t-87 20t-90.5 -25.5t-60 -69t-21.5 -98.5h34q0 31 12.5 54t35.5 36t54 13q44 0 64.5 -26t20.5 -77zM129 931l102 -91l73 53l-175 140l-175 -140l72 -53z" />
    <glyph glyph-name="Hbar" unicode="&#x126;" horiz-adv-x="744" 
d="M125 321h500v109h-500v-109zM548 700v-700h118v700h-118zM78 700v-700h118v700h-118zM5 539h734v87h-734v-87z" />
    <glyph glyph-name="hbar" unicode="&#x127;" horiz-adv-x="543" 
d="M178 780h-109v-780h109v780zM365 280v-280h109v295q0 59 -18 98.5t-53 59.5t-87 20t-88.5 -25.5t-56 -69t-19.5 -98.5h26q0 31 12.5 54t35.5 36t54 13q44 0 64.5 -26t20.5 -77zM5 614h320v97h-320v-97z" />
    <glyph glyph-name="Itilde" unicode="&#x128;" horiz-adv-x="275" 
d="M78 700v-700h120v700h-120zM-39 821l60 -47q0 8 4 20t14.5 21.5t30.5 9.5q24 0 42 -12t38.5 -24.5t47.5 -12.5q28 0 51.5 11.5t41 30t25.5 36.5l-56 55q-15 -24 -29.5 -37t-30.5 -13q-21 0 -34.5 7.5t-26 17t-28.5 17t-40 7.5q-26 0 -49.5 -11.5t-39.5 -31t-21 -44.5z
" />
    <glyph glyph-name="itilde" unicode="&#x129;" horiz-adv-x="267" 
d="M80 460v-460h107v460h-107zM-44 579l60 -47q0 8 4 20t15 21.5t30 9.5q24 0 42.5 -12.5t38.5 -25t47 -12.5q28 0 51.5 12t41 30t25.5 36l-56 56q-15 -24 -29.5 -37t-30.5 -13q-21 0 -34.5 7.5t-26 17t-28.5 17t-40 7.5q-26 0 -49.5 -12t-39.5 -31t-21 -44z" />
    <glyph glyph-name="Imacron" unicode="&#x12a;" horiz-adv-x="275" 
d="M78 700v-700h120v700h-120zM-41 773h358v97h-358v-97z" />
    <glyph glyph-name="imacron" unicode="&#x12b;" horiz-adv-x="267" 
d="M80 460v-460h107v460h-107zM-46 530h359v98h-359v-98z" />
    <glyph glyph-name="Ibreve" unicode="&#x12c;" horiz-adv-x="275" 
d="M78 700v-700h120v700h-120zM-23 915q0 -36 18.5 -69t54.5 -53t88 -20q53 0 88.5 20t53.5 53t18 69h-82q0 -15 -7.5 -30.5t-24.5 -27t-46 -11.5t-46 11.5t-24.5 27t-7.5 30.5h-83z" />
    <glyph glyph-name="ibreve" unicode="&#x12d;" horiz-adv-x="267" 
d="M80 460v-460h107v460h-107zM-27 673q0 -37 18 -69.5t54 -53t88 -20.5q53 0 88.5 20.5t54 53t18.5 69.5h-83q0 -15 -7.5 -31t-24.5 -27t-46 -11t-46 11t-24.5 27t-7.5 31h-82z" />
    <glyph glyph-name="Iogonek" unicode="&#x12e;" horiz-adv-x="275" 
d="M78 700v-700h120v700h-120zM192 -122q-10 -10 -21 -15t-29 -5q-20 0 -31.5 11t-11.5 34q0 18 11.5 35.5t31 34t45.5 28.5l-41 25q-35 -18 -65.5 -40t-49.5 -48t-19 -57q0 -30 14.5 -53t41 -35t64.5 -12q36 0 59 12.5t34 27.5z" />
    <glyph glyph-name="iogonek" unicode="&#x12f;" horiz-adv-x="267" 
d="M65 643q0 -27 20.5 -46.5t47.5 -19.5q29 0 49 19.5t20 46.5q0 28 -20 47t-49 19q-27 0 -47.5 -19t-20.5 -47zM80 460v-460h107v460h-107zM182 -122q-10 -10 -21 -15t-29 -5q-21 0 -32 10.5t-11 34.5q0 17 11 34.5t31 34t46 28.5l-41 25q-35 -18 -66 -40t-50 -48t-19 -57
q0 -30 14.5 -53t41 -35t65.5 -12q35 0 58.5 12.5t34.5 27.5z" />
    <glyph glyph-name="Idotaccent" unicode="&#x130;" horiz-adv-x="275" 
d="M78 700v-700h120v700h-120zM69 838q0 -27 20 -46t48 -19q29 0 48.5 19t19.5 46q0 29 -19.5 47.5t-48.5 18.5q-28 0 -48 -18.5t-20 -47.5z" />
    <glyph glyph-name="dotlessi" unicode="&#x131;" horiz-adv-x="267" 
d="M80 460v-460h107v460h-107z" />
    <glyph glyph-name="IJ" unicode="&#x132;" horiz-adv-x="544" 
d="M199 -88l-64 -87q13 -11 35.5 -23t51.5 -20.5t60 -8.5q40 0 74 9.5t58.5 30.5t38 53t13.5 77v757h-121v-736q0 -47 -22 -66.5t-45 -19.5q-25 0 -46 9.5t-33 24.5zM78 700v-700h120v700h-120z" />
    <glyph glyph-name="ij" unicode="&#x133;" horiz-adv-x="524" 
d="M323 643q0 -27 20 -46.5t48 -19.5t48 19.5t20 46.5q0 28 -20 47t-48 19t-48 -19t-20 -47zM242 -99l-51 -84q9 -10 23 -20t34.5 -17t46.5 -7q48 0 81 18.5t50.5 54.5t17.5 89v525h-106v-504q0 -29 -5.5 -46.5t-16.5 -26t-26 -8.5q-13 0 -25.5 5t-22.5 21zM65 643
q0 -27 20.5 -46.5t47.5 -19.5q29 0 49 19.5t20 46.5q0 28 -20 47t-49 19q-27 0 -47.5 -19t-20.5 -47zM80 460v-460h107v460h-107z" />
    <glyph glyph-name="Jcircumflex" unicode="&#x134;" horiz-adv-x="276" 
d="M-69 -88l-63 -87q13 -11 35 -23t51.5 -20.5t60.5 -8.5q39 0 73 9.5t59 30.5t38.5 53t13.5 77v757h-121v-736q0 -47 -22 -66.5t-45 -19.5q-25 0 -46 9.5t-34 24.5zM138 864l103 -91l72 52l-175 140l-175 -140l73 -52z" />
    <glyph glyph-name="jcircumflex" unicode="&#x135;" horiz-adv-x="259" 
d="M-23 -99l-51 -84q9 -10 23 -20t34.5 -17t46.5 -7q48 0 81.5 18.5t50.5 54.5t17 89v525h-106v-504q0 -29 -5.5 -46.5t-16.5 -26t-26 -8.5q-13 0 -25.5 5t-22.5 21zM126 622l102 -92l73 53l-175 140l-175 -140l72 -53z" />
    <glyph glyph-name="uni0136" unicode="&#x136;" horiz-adv-x="619" 
d="M78 700v-700h121v700h-121zM459 700l-295 -331l307 -369h146l-311 372l296 328h-143zM327 -60l-88 -259l80 -22l117 250z" />
    <glyph glyph-name="uni0137" unicode="&#x137;" horiz-adv-x="495" 
d="M65 780v-780h106v780h-106zM340 460l-198 -190l219 -270h132l-219 270l199 190h-133zM258 -60l-88 -259l81 -22l116 250z" />
    <glyph glyph-name="kgreenlandic" unicode="&#x138;" horiz-adv-x="495" 
d="M65 460v-460h106v460h-106zM340 460l-198 -190l219 -270h132l-219 270l199 190h-133z" />
    <glyph glyph-name="Lacute" unicode="&#x139;" horiz-adv-x="481" 
d="M78 700v-700h396v106h-278v594h-118zM418 923l-91 45l-150 -160l61 -35z" />
    <glyph glyph-name="lacute" unicode="&#x13a;" horiz-adv-x="246" 
d="M69 780v-780h109v780h-109zM266 990l-91 45l-150 -160l61 -35z" />
    <glyph glyph-name="uni013B" unicode="&#x13b;" horiz-adv-x="481" 
d="M78 700v-700h396v106h-278v594h-118zM265 -60l-88 -259l81 -22l116 250z" />
    <glyph glyph-name="uni013C" unicode="&#x13c;" horiz-adv-x="246" 
d="M69 780v-780h109v780h-109zM113 -60l-88 -259l80 -22l117 250z" />
    <glyph glyph-name="Lcaron" unicode="&#x13d;" horiz-adv-x="481" 
d="M78 700v-700h396v106h-278v594h-118zM362 713l-88 -259l80 -22l117 250z" />
    <glyph glyph-name="lcaron" unicode="&#x13e;" horiz-adv-x="246" 
d="M69 780v-780h109v780h-109zM316 780l-88 -259l80 -22l116 250z" />
    <glyph glyph-name="Ldot" unicode="&#x13f;" horiz-adv-x="481" 
d="M78 700v-700h396v106h-278v594h-118zM283 421q0 -28 20.5 -49t49.5 -21q31 0 51 21t20 49q0 29 -20 49.5t-51 20.5q-29 0 -49.5 -20.5t-20.5 -49.5z" />
    <glyph glyph-name="ldot" unicode="&#x140;" horiz-adv-x="413" 
d="M69 780v-780h109v780h-109zM230 413q0 -29 20.5 -49.5t50.5 -20.5t50.5 20.5t20.5 49.5t-20.5 49.5t-50.5 20.5t-50.5 -20.5t-20.5 -49.5z" />
    <glyph glyph-name="Lslash" unicode="&#x141;" horiz-adv-x="484" 
d="M5 328l308 200l-28 62l-307 -200zM78 700v-700h396v106h-278v594h-118z" />
    <glyph glyph-name="lslash" unicode="&#x142;" horiz-adv-x="246" 
d="M0 328l283 177l-28 63l-282 -178zM69 780v-780h109v780h-109z" />
    <glyph glyph-name="Nacute" unicode="&#x143;" horiz-adv-x="783" 
d="M589 700v-470l-511 505v-735h116v470l511 -505v735h-116zM555 908l-91 45l-150 -160l61 -35z" />
    <glyph glyph-name="nacute" unicode="&#x144;" horiz-adv-x="545" 
d="M178 460h-109v-460h109v460zM365 280v-280h111v293q0 87 -41.5 132t-118.5 45q-52 0 -88.5 -25.5t-56 -68.5t-19.5 -98l26 2q0 31 12.5 54t35.5 36t54 13q44 0 64.5 -26t20.5 -77zM422 680l-90 45l-150 -160l60 -35z" />
    <glyph glyph-name="uni0145" unicode="&#x145;" horiz-adv-x="783" 
d="M385 -42l-88 -259l80 -22l116 250zM589 700v-470l-511 505v-735h116v470l511 -505v735h-116z" />
    <glyph glyph-name="uni0146" unicode="&#x146;" horiz-adv-x="545" 
d="M178 460h-109v-460h109v460zM365 280v-280h111v293q0 87 -41.5 132t-118.5 45q-52 0 -90.5 -25.5t-60 -68.5t-21.5 -98l34 2q0 31 12.5 54t35.5 36t54 13q44 0 64.5 -26t20.5 -77zM262 -60l-88 -259l80 -22l117 250z" />
    <glyph glyph-name="Ncaron" unicode="&#x147;" horiz-adv-x="783" 
d="M390 889l-102 91l-73 -52l175 -140l175 140l-72 52zM589 700v-470l-511 505v-735h116v470l511 -505v735h-116z" />
    <glyph glyph-name="ncaron" unicode="&#x148;" horiz-adv-x="545" 
d="M178 460h-109v-460h109v460zM365 280v-280h111v293q0 87 -41.5 132t-118.5 45q-52 0 -90.5 -25.5t-60 -68.5t-21.5 -98l34 2q0 31 12.5 54t35.5 36t54 13q44 0 64.5 -26t20.5 -77zM272 632l-102 91l-73 -53l175 -140l175 140l-72 53z" />
    <glyph glyph-name="napostrophe" unicode="&#x149;" horiz-adv-x="680" 
d="M313 460h-109v-460h109v460zM500 280v-280h111v293q0 87 -41.5 132t-118.5 45q-51 0 -90 -25.5t-60.5 -68.5t-21.5 -98l34 2q0 31 12.5 54t35.5 36t54 13q44 0 64.5 -26t20.5 -77zM123 700l-58 -240h76l102 240h-120z" />
    <glyph glyph-name="Eng" unicode="&#x14a;" horiz-adv-x="783" 
d="M556 -218q47 0 80.5 19.5t51 56t17.5 87.5v755h-116v-470l-511 505v-735h116v470l405 -406v-98q0 -28 -5.5 -46.5t-16 -26.5t-26.5 -8q-15 0 -27 6.5t-21 18.5l-51 -84q21 -22 46 -33t58 -11z" />
    <glyph glyph-name="eng" unicode="&#x14b;" horiz-adv-x="545" 
d="M322 -227q75 0 114.5 41.5t39.5 120.5v358q0 86 -41 131.5t-119 45.5q-45 0 -80.5 -21t-57.5 -59v70h-109v-460h109v279q0 31 12.5 54.5t35.5 36.5t54 13q43 0 64 -25.5t21 -77.5v-324q0 -41 -12 -61t-36 -20q-30 0 -48 26l-51 -84q20 -22 46.5 -33t57.5 -11z" />
    <glyph glyph-name="Omacron" unicode="&#x14c;" horiz-adv-x="803" 
d="M163 350q0 72 31 128.5t84.5 88.5t122.5 32q71 0 124.5 -32t83.5 -88.5t30 -128.5t-30.5 -128t-84 -88.5t-123.5 -32.5q-69 0 -122.5 32.5t-84.5 88.5t-31 128zM38 350q0 -78 27 -145t76 -116t115.5 -76.5t144.5 -27.5q80 0 146 27.5t115 76.5t76 116t27 145
q0 79 -27 145t-76.5 114.5t-115.5 76t-145 27.5q-77 0 -143.5 -27.5t-116 -76t-76.5 -114.5t-27 -145zM222 773h359v97h-359v-97z" />
    <glyph glyph-name="omacron" unicode="&#x14d;" horiz-adv-x="564" 
d="M34 230q0 -70 32.5 -124.5t89 -85t126.5 -30.5q71 0 127 30.5t88.5 85t32.5 124.5q0 71 -32.5 125t-88.5 84.5t-127 30.5q-70 0 -126.5 -30.5t-89 -84.5t-32.5 -125zM145 230q0 43 18 76t49 51t70 18t70 -18t49 -51t18 -76t-18 -75.5t-49 -51t-70 -18.5t-70 18.5t-49 51
t-18 75.5zM103 530h358v98h-358v-98z" />
    <glyph glyph-name="Obreve" unicode="&#x14e;" horiz-adv-x="803" 
d="M163 350q0 72 31 128.5t84.5 88.5t122.5 32q71 0 124.5 -32t83.5 -88.5t30 -128.5t-30.5 -128t-84 -88.5t-123.5 -32.5q-69 0 -122.5 32.5t-84.5 88.5t-31 128zM38 350q0 -78 27 -145t76 -116t115.5 -76.5t144.5 -27.5q80 0 146 27.5t115 76.5t76 116t27 145
q0 79 -27 145t-76.5 114.5t-115.5 76t-145 27.5q-77 0 -143.5 -27.5t-116 -76t-76.5 -114.5t-27 -145zM241 915q0 -36 18 -69t54 -53t88 -20q53 0 89 20t54 53t18 69h-82q0 -15 -7.5 -30.5t-25 -27t-46.5 -11.5q-28 0 -45.5 11.5t-25 27t-7.5 30.5h-82z" />
    <glyph glyph-name="obreve" unicode="&#x14f;" horiz-adv-x="564" 
d="M34 230q0 -70 32.5 -124.5t89 -85t126.5 -30.5q71 0 127 30.5t88.5 85t32.5 124.5q0 71 -32.5 125t-88.5 84.5t-127 30.5q-70 0 -126.5 -30.5t-89 -84.5t-32.5 -125zM145 230q0 43 18 76t49 51t70 18t70 -18t49 -51t18 -76t-18 -75.5t-49 -51t-70 -18.5t-70 18.5t-49 51
t-18 75.5zM121 673q0 -37 18.5 -69.5t54.5 -53t88 -20.5q53 0 88.5 20.5t53.5 53t18 69.5h-82q0 -15 -7.5 -31t-24.5 -27t-46 -11t-46 11t-24.5 27t-7.5 31h-83z" />
    <glyph glyph-name="Ohungarumlaut" unicode="&#x150;" horiz-adv-x="803" 
d="M315 773l139 188l-99 24l-108 -192zM488 773l140 188l-100 24l-107 -192zM163 350q0 72 31 128.5t84.5 88.5t122.5 32q71 0 124.5 -32t83.5 -88.5t30 -128.5t-30.5 -128t-84 -88.5t-123.5 -32.5q-69 0 -122.5 32.5t-84.5 88.5t-31 128zM38 350q0 -78 27 -145t76 -116
t115.5 -76.5t144.5 -27.5q80 0 146 27.5t115 76.5t76 116t27 145q0 79 -27 145t-76.5 114.5t-115.5 76t-145 27.5q-77 0 -143.5 -27.5t-116 -76t-76.5 -114.5t-27 -145z" />
    <glyph glyph-name="ohungarumlaut" unicode="&#x151;" horiz-adv-x="564" 
d="M195 531l139 188l-99 24l-108 -192zM368 531l140 188l-100 24l-107 -192zM34 230q0 -70 32.5 -124.5t89 -85t126.5 -30.5q71 0 127 30.5t88.5 85t32.5 124.5q0 71 -32.5 125t-88.5 84.5t-127 30.5q-70 0 -126.5 -30.5t-89 -84.5t-32.5 -125zM145 230q0 43 18 76t49 51
t70 18t70 -18t49 -51t18 -76t-18 -75.5t-49 -51t-70 -18.5t-70 18.5t-49 51t-18 75.5z" />
    <glyph glyph-name="OE" unicode="&#x152;" horiz-adv-x="985" 
d="M562 324h347v102h-347v-102zM503 670v-640h116v640h-116zM930 104h-358l-24 4h-145q-57 0 -101.5 16.5t-76.5 48t-49 76.5t-17 101t16.5 101.5t48.5 77t77 48t102 16.5h148l17 3h361v104h-539q-76 0 -141 -25t-112 -71.5t-73 -111t-26 -142.5t26 -142.5t73.5 -111
t112 -71.5t140.5 -25h540v104z" />
    <glyph glyph-name="oe" unicode="&#x153;" horiz-adv-x="900" 
d="M750 250v-20l114 -25q1 6 1 14.5v14.5q0 73 -29 125.5t-76 81.5t-102 29q-59 0 -106.5 -24t-77.5 -67t-40 -100q-2 -12 -3 -24t-1 -25q0 -69 28 -123.5t77 -85.5t111 -31q50 0 90.5 16t71.5 44t53 65l-93 38q-22 -34 -53.5 -54.5t-77.5 -20.5q-40 0 -69.5 17.5
t-45.5 51.5t-16 83l2 30q0 41 17.5 69.5t46.5 43.5t64 15q38 0 63.5 -17.5t38 -48.5t12.5 -72zM481 205h383l-20 74h-363v-74zM35 230q0 -74 31 -128t83 -83t114 -29q63 0 108.5 29t70 83t24.5 128q0 75 -24.5 128.5t-70 82.5t-108.5 29q-62 0 -114 -29t-83 -82.5
t-31 -128.5zM144 230q0 47 18.5 79.5t50 49t68.5 16.5q32 0 60 -16.5t45 -49t17 -79.5t-17 -79.5t-45 -49t-60 -16.5q-37 0 -68.5 16.5t-50 49t-18.5 79.5z" />
    <glyph glyph-name="Racute" unicode="&#x154;" horiz-adv-x="595" 
d="M223 334l222 -334h143l-238 334h-127zM78 700v-700h118v700h-118zM148 598h141q41 0 71 -14t47 -40t17 -64q0 -37 -17 -63.5t-47 -40t-71 -13.5h-141v-98h146q77 0 133 27t87.5 76t31.5 115t-31.5 114.5t-87.5 75.5t-133 27h-146v-102zM431 923l-91 45l-150 -160l61 -35z
" />
    <glyph glyph-name="racute" unicode="&#x155;" horiz-adv-x="371" 
d="M176 460h-107v-460h107v460zM313 345l53 91q-16 19 -38 27t-47 8q-35 0 -67.5 -25.5t-53 -68t-20.5 -97.5l36 -21q0 33 7.5 57.5t24.5 38.5t44 14q20 0 33.5 -6t27.5 -18zM359 681l-90 45l-150 -160l60 -35z" />
    <glyph glyph-name="uni0156" unicode="&#x156;" horiz-adv-x="595" 
d="M223 334l222 -334h143l-238 334h-127zM78 700v-700h118v700h-118zM148 598h141q41 0 71 -14t47 -40t17 -64q0 -37 -17 -63.5t-47 -40t-71 -13.5h-141v-98h146q77 0 133 27t87.5 76t31.5 115t-31.5 114.5t-87.5 75.5t-133 27h-146v-102zM322 -60l-88 -259l81 -22l116 250z
" />
    <glyph glyph-name="uni0157" unicode="&#x157;" horiz-adv-x="371" 
d="M176 460h-107v-460h107v460zM313 345l53 91q-16 19 -38 27t-47 8q-35 0 -67.5 -25.5t-53 -68t-20.5 -97.5l36 -21q0 33 7.5 57.5t24.5 38.5t44 14q20 0 33.5 -6t27.5 -18zM112 -60l-88 -259l81 -22l116 250z" />
    <glyph glyph-name="Rcaron" unicode="&#x158;" horiz-adv-x="595" 
d="M223 334l222 -334h143l-238 334h-127zM78 700v-700h118v700h-118zM148 598h141q41 0 71 -14t47 -40t17 -64q0 -37 -17 -63.5t-47 -40t-71 -13.5h-141v-98h146q77 0 133 27t87.5 76t31.5 115t-31.5 114.5t-87.5 75.5t-133 27h-146v-102zM278 874l-102 91l-73 -52l175 -140
l175 140l-72 52z" />
    <glyph glyph-name="rcaron" unicode="&#x159;" horiz-adv-x="371" 
d="M176 460h-107v-460h107v460zM313 345l53 91q-16 19 -38 27t-47 8q-35 0 -67.5 -25.5t-53 -68t-20.5 -97.5l36 -21q0 33 7.5 57.5t24.5 38.5t44 14q20 0 33.5 -6t27.5 -18zM217 632l-103 91l-72 -52l175 -140l175 140l-73 52z" />
    <glyph glyph-name="Sacute" unicode="&#x15a;" horiz-adv-x="579" 
d="M129 236l-91 -59q22 -58 61 -101t91 -67t112 -24q75 0 127 25t80 72t28 111q0 47 -16 81.5t-42 59t-57.5 41.5t-62.5 28q-42 16 -78.5 32t-59.5 37t-23 51q0 26 12 44.5t35 29t54 10.5q34 0 59 -14t43.5 -37.5t33.5 -51.5l92 57q-14 36 -44 71t-76.5 58t-111.5 23
q-63 0 -113 -23t-78.5 -64.5t-28.5 -96.5q0 -48 18.5 -82.5t46.5 -58t59.5 -39.5t56.5 -25q40 -15 75.5 -32t58 -41.5t22.5 -63.5q0 -30 -12 -51.5t-35.5 -32.5t-58.5 -11q-31 0 -56 10t-46.5 28t-39.5 45t-35 61zM475 923l-91 45l-150 -160l61 -35z" />
    <glyph glyph-name="sacute" unicode="&#x15b;" horiz-adv-x="424" 
d="M88 167l-65 -63q15 -33 45.5 -60t71.5 -42.5t85 -15.5q78 0 125 34t47 110q0 37 -18 62.5t-47 43.5t-62 31q-27 11 -53.5 21.5t-44 22.5t-17.5 28q0 22 17 31.5t45 9.5q19 0 40 -7t40.5 -19t32.5 -29l60 64q-15 23 -42.5 41t-62.5 29t-73 11q-42 0 -79 -14.5t-60.5 -42.5
t-23.5 -69q0 -39 18.5 -64.5t47.5 -42t60 -29.5q27 -11 52.5 -22t42 -25t16.5 -36q0 -25 -17.5 -36t-48.5 -11q-23 0 -47 10.5t-46 30t-39 48.5zM392 680l-91 45l-150 -160l61 -35z" />
    <glyph glyph-name="Scircumflex" unicode="&#x15c;" horiz-adv-x="579" 
d="M129 236l-91 -59q22 -58 61 -101t91 -67t112 -24q75 0 127 25t80 72t28 111q0 47 -16 81.5t-42 59t-57.5 41.5t-62.5 28q-42 16 -78.5 32t-59.5 37t-23 51q0 26 12 44.5t35 29t54 10.5q34 0 59 -14t43.5 -37.5t33.5 -51.5l92 57q-14 36 -44 71t-76.5 58t-111.5 23
q-63 0 -113 -23t-78.5 -64.5t-28.5 -96.5q0 -48 18.5 -82.5t46.5 -58t59.5 -39.5t56.5 -25q40 -15 75.5 -32t58 -41.5t22.5 -63.5q0 -30 -12 -51.5t-35.5 -32.5t-58.5 -11q-31 0 -56 10t-46.5 28t-39.5 45t-35 61zM295 864l103 -91l72 52l-175 140l-175 -140l73 -52z" />
    <glyph glyph-name="scircumflex" unicode="&#x15d;" horiz-adv-x="424" 
d="M88 167l-65 -63q15 -33 45.5 -60t71.5 -42.5t85 -15.5q78 0 125 34t47 110q0 37 -18 62.5t-47 43.5t-62 31q-27 11 -53.5 21.5t-44 22.5t-17.5 28q0 22 17 31.5t45 9.5q19 0 40 -7t40.5 -19t32.5 -29l60 64q-15 23 -42.5 41t-62.5 29t-73 11q-42 0 -79 -14.5t-60.5 -42.5
t-23.5 -69q0 -39 18.5 -64.5t47.5 -42t60 -29.5q27 -11 52.5 -22t42 -25t16.5 -36q0 -25 -17.5 -36t-48.5 -11q-23 0 -47 10.5t-46 30t-39 48.5zM217 622l102 -92l73 53l-175 140l-175 -140l72 -53z" />
    <glyph glyph-name="Scedilla" unicode="&#x15e;" horiz-adv-x="579" 
d="M129 236l-91 -59q22 -58 61 -101t91 -67t112 -24q71 0 123.5 25t82 72t29.5 111q0 47 -16 81.5t-42 59t-57.5 41.5t-62.5 28q-42 16 -78.5 32t-59.5 37t-23 51q0 26 10.5 44.5t31.5 29t51 10.5q35 0 61.5 -14t47 -37.5t35.5 -51.5l92 57q-17 40 -47 74.5t-75 56
t-110 21.5q-67 0 -116.5 -24t-76.5 -66t-27 -98q0 -50 18.5 -84.5t46.5 -56.5t59.5 -36.5t56.5 -23.5q40 -15 75.5 -32t58 -41.5t22.5 -63.5q0 -30 -12 -51.5t-35.5 -32.5t-58.5 -11q-31 0 -56 10t-46.5 28t-39.5 45t-35 61zM297 60l-87 -179q20 11 40.5 14t27.5 3
q25 0 39.5 -7.5t14.5 -26.5q0 -18 -13 -28t-39 -10q-17 0 -33 6t-32 18l-39 -51q27 -22 53 -30.5t59 -8.5q30 0 56 11.5t43 34t17 54.5q0 29 -12.5 47t-30.5 27.5t-37 9.5q-5 0 -10 -0.5t-10 -1.5l73 116z" />
    <glyph glyph-name="scedilla" unicode="&#x15f;" horiz-adv-x="424" 
d="M86 168l-63 -63q23 -34 55 -60.5t71 -42t84 -15.5q72 0 118 34t46 110q0 40 -18 66t-47 43.5t-62 30.5q-27 11 -53 20t-43.5 21t-17.5 32q0 22 18 31.5t45 9.5q28 0 59.5 -17.5t51.5 -41.5l60 64q-28 34 -74.5 57.5t-103.5 23.5q-42 0 -78 -14t-58 -42t-22 -71
q0 -44 19.5 -70t49.5 -41t62 -27q27 -10 49.5 -20.5t37 -25t14.5 -35.5q0 -24 -17.5 -36t-44.5 -12q-19 0 -41.5 10.5t-47.5 30.5t-49 50zM224 62l-85 -179q20 11 39.5 14t26.5 3q25 0 40 -7.5t15 -26.5q0 -18 -13 -28t-39 -10q-17 0 -33 6t-32 18l-37 -51q26 -22 51 -30.5
t59 -8.5q29 0 56 11.5t44 34t17 54.5q0 29 -12.5 47t-31.5 27.5t-37 9.5q-5 0 -10 -0.5t-9 -1.5l73 116z" />
    <glyph glyph-name="Scaron" unicode="&#x160;" horiz-adv-x="579" 
d="M129 236l-91 -59q22 -58 61 -101t91 -67t112 -24q75 0 127 25t80 72t28 111q0 47 -16 81.5t-42 59t-57.5 41.5t-62.5 28q-42 16 -78.5 32t-59.5 37t-23 51q0 26 12 44.5t35 29t54 10.5q34 0 59 -14t43.5 -37.5t33.5 -51.5l92 57q-14 36 -44 71t-76.5 58t-111.5 23
q-63 0 -113 -23t-78.5 -64.5t-28.5 -96.5q0 -48 18.5 -82.5t46.5 -58t59.5 -39.5t56.5 -25q40 -15 75.5 -32t58 -41.5t22.5 -63.5q0 -30 -12 -51.5t-35.5 -32.5t-58.5 -11q-31 0 -56 10t-46.5 28t-39.5 45t-35 61zM295 874l-102 91l-73 -52l175 -140l175 140l-72 52z" />
    <glyph glyph-name="scaron" unicode="&#x161;" horiz-adv-x="424" 
d="M88 167l-65 -63q15 -33 45.5 -60t71.5 -42.5t85 -15.5q78 0 125 34t47 110q0 37 -18 62.5t-47 43.5t-62 31q-27 11 -53.5 21.5t-44 22.5t-17.5 28q0 22 17 31.5t45 9.5q19 0 40 -7t40.5 -19t32.5 -29l60 64q-15 23 -42.5 41t-62.5 29t-73 11q-42 0 -79 -14.5t-60.5 -42.5
t-23.5 -69q0 -39 18.5 -64.5t47.5 -42t60 -29.5q27 -11 52.5 -22t42 -25t16.5 -36q0 -25 -17.5 -36t-48.5 -11q-23 0 -47 10.5t-46 30t-39 48.5zM212 627l-103 91l-72 -53l175 -140l175 140l-73 53z" />
    <glyph glyph-name="uni0162" unicode="&#x162;" horiz-adv-x="504" 
d="M212 10l-86 -179q20 11 40 14t27 3q25 0 39.5 -8t14.5 -26t-12.5 -28t-38.5 -10q-18 0 -33.5 5.5t-31.5 18.5l-38 -51q26 -22 51.5 -30.5t59.5 -8.5q29 0 55.5 11.5t43.5 34t17 54.5q0 28 -12.5 46.5t-31 28t-36.5 9.5q-5 0 -10.5 -0.5t-9.5 -1.5l73 116zM8 591h185v-591
h118v591h185v109h-488v-109z" />
    <glyph glyph-name="uni0163" unicode="&#x163;" horiz-adv-x="271" 
d="M96 10l-86 -179q20 11 40 14t27 3q25 0 39.5 -8t14.5 -26t-12.5 -28t-38.5 -10q-18 0 -33.5 5.5t-31.5 18.5l-38 -51q26 -22 51.5 -30.5t59.5 -8.5q29 0 55.5 11.5t43.5 34t17 54.5q0 28 -12.5 46.5t-31 28t-36.5 9.5q-5 0 -10.5 -0.5t-9.5 -1.5l73 116zM5 460v-95h261
v95h-261zM83 620v-620h106v620h-106z" />
    <glyph glyph-name="Tcaron" unicode="&#x164;" horiz-adv-x="504" 
d="M8 591h185v-591h118v591h185v109h-488v-109zM252 874l-102 91l-73 -52l175 -140l175 140l-72 52z" />
    <glyph glyph-name="tcaron" unicode="&#x165;" horiz-adv-x="404" 
d="M5 460v-95h261v95h-261zM83 620v-620h106v620h-106zM329 801l-88 -259l81 -22l116 250z" />
    <glyph glyph-name="Tbar" unicode="&#x166;" horiz-adv-x="504" 
d="M83 349h339v97h-339v-97zM8 591h185v-591h118v591h185v109h-488v-109z" />
    <glyph glyph-name="tbar" unicode="&#x167;" horiz-adv-x="240" 
d="M20 194h205v97h-205v-97zM5 460v-95h261v95h-261zM83 620v-620h106v620h-106z" />
    <glyph glyph-name="Utilde" unicode="&#x168;" horiz-adv-x="656" 
d="M73 700v-470q0 -58 18.5 -103.5t52.5 -77.5t81 -49t103 -17t103 17t81.5 49t53 77.5t18.5 103.5v470h-119v-465q0 -64 -34.5 -104t-102.5 -40q-67 0 -102 40t-35 104v465h-118zM151 821l60 -47q0 8 4 20t14.5 21.5t30.5 9.5q24 0 42 -12t38.5 -24.5t47.5 -12.5
q28 0 51.5 11.5t41 30t25.5 36.5l-56 55q-15 -24 -29.5 -37t-30.5 -13q-21 0 -34.5 7.5t-26 17t-28.5 17t-40 7.5q-26 0 -49.5 -11.5t-39.5 -31t-21 -44.5z" />
    <glyph glyph-name="utilde" unicode="&#x169;" horiz-adv-x="545" 
d="M368 0h108v460h-108v-460zM180 180v280h-111v-292q0 -88 42 -133t118 -45q52 0 88.5 25.5t56.5 69t20 98.5l-26 -3q0 -30 -13 -53.5t-36 -36.5t-53 -13q-45 0 -65.5 26.5t-20.5 76.5zM96 579l60 -47q0 8 4 20t14.5 21.5t30.5 9.5q24 0 42 -12.5t38.5 -25t47.5 -12.5
q28 0 51.5 12t41 30t25.5 36l-56 56q-15 -24 -29.5 -37t-30.5 -13q-21 0 -34.5 7.5t-26 17t-28.5 17t-40 7.5q-26 0 -49.5 -12t-39.5 -31t-21 -44z" />
    <glyph glyph-name="Umacron" unicode="&#x16a;" horiz-adv-x="656" 
d="M73 700v-470q0 -58 18.5 -103.5t52.5 -77.5t81 -49t103 -17t103 17t81.5 49t53 77.5t18.5 103.5v470h-119v-465q0 -64 -34.5 -104t-102.5 -40q-67 0 -102 40t-35 104v465h-118zM149 773h359v97h-359v-97z" />
    <glyph glyph-name="umacron" unicode="&#x16b;" horiz-adv-x="545" 
d="M368 0h108v460h-108v-460zM180 180v280h-111v-292q0 -88 42 -133t118 -45q52 0 88.5 25.5t56.5 69t20 98.5l-26 -3q0 -30 -13 -53.5t-36 -36.5t-53 -13q-45 0 -65.5 26.5t-20.5 76.5zM94 530h358v98h-358v-98z" />
    <glyph glyph-name="Ubreve" unicode="&#x16c;" horiz-adv-x="656" 
d="M73 700v-470q0 -58 18.5 -103.5t52.5 -77.5t81 -49t103 -17t103 17t81.5 49t53 77.5t18.5 103.5v470h-119v-465q0 -64 -34.5 -104t-102.5 -40q-67 0 -102 40t-35 104v465h-118zM168 915q0 -36 18 -69t54 -53t88 -20q53 0 88.5 20t54 53t18.5 69h-83q0 -15 -7.5 -30.5
t-24.5 -27t-46 -11.5t-46 11.5t-24.5 27t-7.5 30.5h-82z" />
    <glyph glyph-name="ubreve" unicode="&#x16d;" horiz-adv-x="545" 
d="M368 0h108v460h-108v-460zM180 180v280h-111v-292q0 -88 42 -133t118 -45q52 0 88.5 25.5t56.5 69t20 98.5l-26 -3q0 -30 -13 -53.5t-36 -36.5t-53 -13q-45 0 -65.5 26.5t-20.5 76.5zM113 673q0 -37 18 -69.5t54 -53t88 -20.5q53 0 88.5 20.5t54 53t18.5 69.5h-83
q0 -15 -7.5 -31t-24.5 -27t-46 -11t-46 11t-24.5 27t-7.5 31h-82z" />
    <glyph glyph-name="Uring" unicode="&#x16e;" horiz-adv-x="656" 
d="M73 700v-470q0 -58 18.5 -103.5t52.5 -77.5t81 -49t103 -17t103 17t81.5 49t53 77.5t18.5 103.5v470h-119v-465q0 -64 -34.5 -104t-102.5 -40q-67 0 -102 40t-35 104v465h-118zM217 879q0 -48 33.5 -77t77.5 -29t77.5 29t33.5 77t-33.5 77t-77.5 29t-77.5 -29t-33.5 -77z
M279 879q0 24 15 37.5t34 13.5t34 -13.5t15 -37.5t-15 -37.5t-34 -13.5t-34 13.5t-15 37.5z" />
    <glyph glyph-name="uring" unicode="&#x16f;" horiz-adv-x="545" 
d="M368 0h108v460h-108v-460zM180 180v280h-111v-292q0 -88 42 -133t118 -45q52 0 88.5 25.5t56.5 69t20 98.5l-26 -3q0 -30 -13 -53.5t-36 -36.5t-53 -13q-45 0 -65.5 26.5t-20.5 76.5zM162 637q0 -48 33.5 -77.5t77.5 -29.5t77.5 29.5t33.5 77.5q0 47 -33.5 76.5
t-77.5 29.5t-77.5 -29.5t-33.5 -76.5zM224 637q0 24 15 37.5t34 13.5t34 -13.5t15 -37.5t-15 -37.5t-34 -13.5t-34 13.5t-15 37.5z" />
    <glyph glyph-name="Uhungarumlaut" unicode="&#x170;" horiz-adv-x="656" 
d="M241 773l139 188l-99 24l-108 -192zM414 773l140 188l-100 24l-107 -192zM73 700v-470q0 -58 18.5 -103.5t52.5 -77.5t81 -49t103 -17t103 17t81.5 49t53 77.5t18.5 103.5v470h-119v-465q0 -64 -34.5 -104t-102.5 -40q-67 0 -102 40t-35 104v465h-118z" />
    <glyph glyph-name="uhungarumlaut" unicode="&#x171;" horiz-adv-x="545" 
d="M186 531l139 188l-99 24l-108 -192zM359 531l140 188l-100 24l-107 -192zM180 180v280h-111v-292q0 -82 41.5 -130t118.5 -48q48 0 82.5 20.5t56.5 60.5v-71h108v460h-108v-280q0 -31 -13 -54t-36 -36t-53 -13q-44 0 -65 27t-21 76z" />
    <glyph glyph-name="Uogonek" unicode="&#x172;" horiz-adv-x="656" 
d="M373 -131q-10 -10 -21 -15t-29 -5q-20 0 -31.5 10.5t-11.5 34.5q0 17 11.5 34.5t31 34t45.5 28.5l-41 25q-35 -18 -65.5 -40t-49.5 -48t-19 -57q0 -30 14 -53t41 -35t65 -12q36 0 59 12.5t34 27.5zM73 700v-470q0 -58 18.5 -103.5t52.5 -77.5t81 -49t103 -17t103 17
t81.5 49t53 77.5t18.5 103.5v470h-119v-465q0 -64 -34.5 -104t-102.5 -40q-67 0 -102 40t-35 104v465h-118z" />
    <glyph glyph-name="uogonek" unicode="&#x173;" horiz-adv-x="545" 
d="M477 -122q-10 -10 -21 -15t-29 -5q-20 0 -31.5 10.5t-11.5 34.5q0 17 11.5 34.5t31 34t45.5 28.5l-41 25q-35 -18 -65.5 -40t-49.5 -48t-19 -57q0 -30 14 -53t41 -35t65 -12q36 0 59 12.5t34 27.5zM180 180v280h-111v-292q0 -82 41.5 -130t118.5 -48q48 0 82.5 20.5
t56.5 60.5v-71h108v460h-108v-280q0 -31 -13 -54t-36 -36t-53 -13q-44 0 -65 27t-21 76z" />
    <glyph glyph-name="Wcircumflex" unicode="&#x174;" horiz-adv-x="1020" 
d="M712 219l-202 516l-202 -516l-163 481h-137l286 -737l216 495l216 -495l287 737h-138zM510 886l103 -91l72 53l-175 140l-175 -140l73 -53z" />
    <glyph glyph-name="wcircumflex" unicode="&#x175;" horiz-adv-x="713" 
d="M0 460l215 -492l138 310l145 -310l215 492h-118l-108 -275l-134 310l-128 -308l-107 273h-118zM353 646l102 -91l73 53l-175 140l-175 -140l72 -53z" />
    <glyph glyph-name="Ycircumflex" unicode="&#x176;" horiz-adv-x="601" 
d="M463 700l-163 -299l-162 299h-135l238 -406v-294h120v295l237 405h-135zM301 864l102 -91l73 52l-175 140l-175 -140l72 -52z" />
    <glyph glyph-name="ycircumflex" unicode="&#x177;" horiz-adv-x="473" 
d="M476 460h-116l-144 -361l51 -3l-147 364h-124l186 -406l-121 -274h115zM236 622l103 -92l72 53l-175 140l-175 -140l73 -53z" />
    <glyph glyph-name="Ydieresis" unicode="&#x178;" horiz-adv-x="601" 
d="M116 843q0 -28 20 -47t48 -19t48.5 19t20.5 47t-20.5 46.5t-48.5 18.5t-48 -18.5t-20 -46.5zM349 843q0 -28 20 -47t47 -19q29 0 49 19t20 47t-20 46.5t-49 18.5q-27 0 -47 -18.5t-20 -46.5zM463 700l-163 -299l-162 299h-135l238 -406v-294h120v295l237 405h-135z" />
    <glyph glyph-name="Zacute" unicode="&#x179;" horiz-adv-x="575" 
d="M44 591h320l-351 -591h518v106h-326l353 594h-514v-109zM466 923l-92 45l-150 -160l62 -35z" />
    <glyph glyph-name="zacute" unicode="&#x17a;" horiz-adv-x="485" 
d="M283 360l-268 -360h430v100h-238l263 360h-420v-100h233zM425 695l-91 45l-150 -160l61 -35z" />
    <glyph glyph-name="Zdotaccent" unicode="&#x17b;" horiz-adv-x="575" 
d="M44 591h320l-351 -591h518v106h-326l353 594h-514v-109zM232 838q0 -27 20.5 -46t48.5 -19t48 19t20 46q0 29 -20 47.5t-48 18.5t-48.5 -18.5t-20.5 -47.5z" />
    <glyph glyph-name="zdotaccent" unicode="&#x17c;" horiz-adv-x="485" 
d="M283 360l-268 -360h430v100h-238l263 360h-420v-100h233zM192 619q0 -28 20 -47t48 -19q29 0 48.5 19t19.5 47t-19.5 46.5t-48.5 18.5q-28 0 -48 -18.5t-20 -46.5z" />
    <glyph glyph-name="Zcaron" unicode="&#x17d;" horiz-adv-x="575" 
d="M44 591h320l-351 -591h518v106h-326l353 594h-514v-109zM301 874l-103 91l-72 -52l175 -140l175 140l-73 52z" />
    <glyph glyph-name="zcaron" unicode="&#x17e;" horiz-adv-x="483" 
d="M260 632l-102 91l-73 -53l175 -140l175 140l-72 53zM283 360l-268 -360h430v100h-238l263 360h-420v-100h233z" />
    <glyph glyph-name="florin" unicode="&#x192;" 
d="M200 -200q41 -1 73 19t51 57t22 88l21 401h83l6 95h-84l10 149q2 39 15 60.5t35 21.5q9 0 19 -5.5t25 -20.5l49 80q-29 26 -53 36t-51 11q-62 1 -101.5 -43.5t-44.5 -121.5l-9 -167h-62l-7 -95h64l-22 -383q-2 -38 -15 -59.5t-35 -21.5q-10 0 -19.5 5.5t-25.5 19.5
l-49 -80q30 -24 54.5 -34.5t50.5 -11.5z" />
    <glyph glyph-name="uni0212" unicode="&#x212;" horiz-adv-x="595" 
d="M223 334l222 -334h143l-238 334h-127zM78 700v-700h118v700h-118zM148 598h141q41 0 71 -14t47 -40t17 -64q0 -37 -17 -63.5t-47 -40t-71 -13.5h-141v-98h146q77 0 133 27t87.5 76t31.5 115t-31.5 114.5t-87.5 75.5t-133 27h-146v-102zM135 773q0 37 18.5 69.5t54.5 52.5
t88 20q53 0 88.5 -20t53.5 -52.5t18 -69.5h-82q0 15 -7.5 30.5t-24.5 26.5t-46 11t-46 -11t-24.5 -26.5t-7.5 -30.5h-83z" />
    <glyph glyph-name="uni0213" unicode="&#x213;" horiz-adv-x="371" 
d="M176 460h-107v-460h107v460zM313 345l53 91q-16 19 -38 27t-47 8q-35 0 -67.5 -25.5t-53 -68t-20.5 -97.5l36 -21q0 33 7.5 57.5t24.5 38.5t44 14q20 0 33.5 -6t27.5 -18zM57 531q0 37 18 69.5t54.5 52.5t88.5 20q53 0 88.5 -20t53.5 -52.5t18 -69.5h-82q0 15 -7.5 30.5
t-25 26.5t-45.5 11q-29 0 -46.5 -11t-25 -26.5t-7.5 -30.5h-82z" />
    <glyph glyph-name="uni0218" unicode="&#x218;" horiz-adv-x="579" 
d="M129 236l-91 -59q22 -58 61 -101t91 -67t112 -24q75 0 127 25t80 72t28 111q0 47 -16 81.5t-42 59t-57.5 41.5t-62.5 28q-42 16 -78.5 32t-59.5 37t-23 51q0 26 12 44.5t35 29t54 10.5q34 0 59 -14t43.5 -37.5t33.5 -51.5l92 57q-14 36 -44 71t-76.5 58t-111.5 23
q-63 0 -113 -23t-78.5 -64.5t-28.5 -96.5q0 -48 18.5 -82.5t46.5 -58t59.5 -39.5t56.5 -25q40 -15 75.5 -32t58 -41.5t22.5 -63.5q0 -30 -12 -51.5t-35.5 -32.5t-58.5 -11q-31 0 -56 10t-46.5 28t-39.5 45t-35 61zM281 -70l-88 -259l81 -22l116 250z" />
    <glyph glyph-name="uni0219" unicode="&#x219;" horiz-adv-x="424" 
d="M88 167l-65 -63q15 -33 45.5 -60t71.5 -42.5t85 -15.5q78 0 125 34t47 110q0 37 -18 62.5t-47 43.5t-62 31q-27 11 -53.5 21.5t-44 22.5t-17.5 28q0 22 17 31.5t45 9.5q19 0 40 -7t40.5 -19t32.5 -29l60 64q-15 23 -42.5 41t-62.5 29t-73 11q-42 0 -79 -14.5t-60.5 -42.5
t-23.5 -69q0 -39 18.5 -64.5t47.5 -42t60 -29.5q27 -11 52.5 -22t42 -25t16.5 -36q0 -25 -17.5 -36t-48.5 -11q-23 0 -47 10.5t-46 30t-39 48.5zM205 -69l-88 -259l80 -22l116 250z" />
    <glyph glyph-name="uni021A" unicode="&#x21a;" horiz-adv-x="504" 
d="M8 591h185v-591h118v591h185v109h-488v-109zM242 -60l-88 -259l81 -22l116 250z" />
    <glyph glyph-name="uni021B" unicode="&#x21b;" horiz-adv-x="271" 
d="M5 460v-95h261v95h-261zM83 620v-620h106v620h-106zM125 -60l-88 -259l81 -22l116 250z" />
    <glyph glyph-name="uni0237" unicode="&#x237;" horiz-adv-x="259" 
d="M-23 -99l-51 -84q9 -10 23 -20t34.5 -17t46.5 -7q48 0 81.5 18.5t50.5 54.5t17 89v525h-106v-504q0 -29 -5.5 -46.5t-16.5 -26t-26 -8.5q-13 0 -25.5 5t-22.5 21z" />
    <glyph glyph-name="circumflex" unicode="&#x2c6;" horiz-adv-x="480" 
d="M240 639l103 -91l72 52l-175 140l-175 -140l73 -52z" />
    <glyph glyph-name="caron" unicode="&#x2c7;" horiz-adv-x="480" 
d="M240 664l-102 91l-73 -53l175 -140l175 140l-72 53z" />
    <glyph glyph-name="breve" unicode="&#x2d8;" horiz-adv-x="546" 
d="M113 850q0 -36 18 -69t54 -53t88 -20q53 0 88.5 20t54 53t18.5 69h-83q0 -15 -7.5 -30.5t-24.5 -27t-46 -11.5t-46 11.5t-24.5 27t-7.5 30.5h-82z" />
    <glyph glyph-name="dotaccent" unicode="&#x2d9;" horiz-adv-x="300" 
d="M82 799q0 -27 20 -46t48 -19q29 0 48.5 19t19.5 46q0 29 -19.5 47.5t-48.5 18.5q-28 0 -48 -18.5t-20 -47.5z" />
    <glyph glyph-name="ring" unicode="&#x2da;" horiz-adv-x="298" 
d="M38 779q0 -48 33.5 -77t77.5 -29t77.5 29t33.5 77t-33.5 77t-77.5 29t-77.5 -29t-33.5 -77zM100 779q0 24 15 37.5t34 13.5t34 -13.5t15 -37.5t-15 -37.5t-34 -13.5t-34 13.5t-15 37.5z" />
    <glyph glyph-name="ogonek" unicode="&#x2db;" horiz-adv-x="260" 
d="M194 -122q-10 -10 -21 -15t-29 -5q-20 0 -31.5 10.5t-11.5 34.5q0 17 11.5 34.5t31 34t45.5 28.5l-41 25q-35 -18 -65.5 -40t-49.5 -48t-19 -57q0 -30 14 -53t41 -35t65 -12q36 0 59 12.5t34 27.5z" />
    <glyph glyph-name="tilde" unicode="&#x2dc;" horiz-adv-x="530" 
d="M90 630l61 -47q0 8 3.5 20t14.5 21.5t30 9.5q24 0 42.5 -12t39 -24.5t47.5 -12.5t51 11.5t41 30t25 36.5l-56 55q-15 -24 -29.5 -37t-30.5 -13q-20 0 -34 7.5t-26 17t-28 17t-41 7.5t-49 -11.5t-40 -31t-21 -44.5z" />
    <glyph glyph-name="hungarumlaut" unicode="&#x2dd;" horiz-adv-x="0" 
d="M68 516l139 188l-99 24l-108 -192zM241 516l140 188l-100 24l-107 -192z" />
    <glyph glyph-name="gravecomb" unicode="&#x300;" horiz-adv-x="0" 
d="M180 541l61 35l-150 160l-91 -45z" />
    <glyph glyph-name="acutecomb" unicode="&#x301;" horiz-adv-x="0" 
d="M76 543l180 150l-91 45l-150 -160z" />
    <glyph glyph-name="uni0302" unicode="&#x302;" horiz-adv-x="0" 
d="M51 548l126 106h-35l125 -106l51 63l-159 128l-159 -128z" />
    <glyph glyph-name="tildecomb" unicode="&#x303;" horiz-adv-x="0" 
d="M61 583q0 10 4.5 21.5t16 20.5t30.5 9q23 0 40 -12t36.5 -24.5t46.5 -12.5t51 11.5t42.5 30t26.5 36.5l-56 55q-15 -24 -30 -37t-32 -13q-20 0 -33 7.5t-24 17t-27 17t-40 7.5q-25 0 -49.5 -11.5t-41.5 -31t-22 -44.5z" />
    <glyph glyph-name="uni0304" unicode="&#x304;" horiz-adv-x="0" 
d="M0 586h359v89h-359v-89z" />
    <glyph glyph-name="uni0306" unicode="&#x306;" horiz-adv-x="0" 
d="M161 543q47 0 83 18t56.5 50.5t20.5 73.5h-89q0 -19 -9.5 -35t-25.5 -25t-36 -9q-21 0 -37 9.5t-25.5 25t-9.5 34.5h-89q0 -41 20.5 -73.5t56.5 -50.5t84 -18z" />
    <glyph glyph-name="uni0307" unicode="&#x307;" horiz-adv-x="0" 
d="M68 555q29 0 49 19.5t20 46.5t-20 46t-49 19q-28 0 -48 -19t-20 -46t20 -46.5t48 -19.5z" />
    <glyph glyph-name="uni0308" unicode="&#x308;" horiz-adv-x="0" 
d="M68 583q31 0 50 18t19 48t-19 48t-50 18t-49.5 -18t-18.5 -48t18.5 -48t49.5 -18zM286 583q31 0 49.5 18t18.5 48t-18.5 48t-49.5 18t-49.5 -18t-18.5 -48t18.5 -48t49.5 -18z" />
    <glyph glyph-name="uni030A" unicode="&#x30a;" horiz-adv-x="0" 
d="M119 520q33 0 60 15.5t43 41t16 57.5t-16 57.5t-43 41t-60 15.5q-50 0 -84.5 -33t-34.5 -81t34.5 -81t84.5 -33zM119 579q-22 0 -37.5 16t-15.5 39t15.5 39t37.5 16t37.5 -16t15.5 -39t-15.5 -39t-37.5 -16z" />
    <glyph glyph-name="uni030B" unicode="&#x30b;" horiz-adv-x="0" 
d="M68 516l139 188l-99 24l-108 -192zM241 516l140 188l-100 24l-107 -192z" />
    <glyph glyph-name="uni030C" unicode="&#x30c;" horiz-adv-x="0" 
d="M159 548l159 129l-51 62l-125 -106h35l-126 106l-51 -62z" />
    <glyph glyph-name="uni0312" unicode="&#x312;" horiz-adv-x="0" 
d="M109 499l88 259l-81 22l-116 -250z" />
    <glyph glyph-name="uni0326" unicode="&#x326;" horiz-adv-x="0" 
d="M57 -214l117 160l-77 36l-97 -171z" />
    <glyph glyph-name="uni0327" unicode="&#x327;" horiz-adv-x="0" 
d="M104 -218q48 0 79.5 28t31.5 70q0 31 -21 55.5t-53 24.5q-21 0 -35 -5t-26 -16l36 -5l69 129l-71 2l-75 -153q12 2 28 2h28q25 0 36.5 -8t11.5 -25q0 -18 -12 -28t-34 -10q-19 0 -35.5 4t-36.5 15l-25 -52q23 -14 48.5 -21t55.5 -7z" />
    <glyph glyph-name="uni0328" unicode="&#x328;" horiz-adv-x="0" 
d="M121 -220q35 0 58.5 12.5t34.5 27.5l-33 58q-10 -10 -21 -15t-29 -5q-21 0 -32 10.5t-11 34.5q0 17 11 34.5t31 34t46 28.5l-41 25q-35 -18 -66 -40t-50 -48t-19 -57q0 -30 14.5 -53t41 -35t65.5 -12z" />
    <glyph glyph-name="uni0394" unicode="&#x394;" 
d="M18 0l282 800l281 -800h-563zM158 92h284l-142 451z" />
    <glyph glyph-name="uni03A9" unicode="&#x3a9;" 
d="M66 0v93l87 -5q-27 34 -46 72t-28.5 78t-9.5 79q0 69 30.5 123.5t82.5 86.5t118 32t118 -32t82 -86.5t30 -123.5q0 -39 -9.5 -79t-28.5 -78t-46 -72l87 5v-93h-199v88q27 22 47.5 56t32.5 73.5t12 77.5q0 46 -15 78t-43 49t-68 17t-68.5 -17t-43.5 -49t-15 -78
q0 -38 12 -77.5t33 -73.5t47 -56v-88h-199z" />
    <glyph glyph-name="uni03BC" unicode="&#x3bc;" horiz-adv-x="543" 
d="M180 460h-111v-780h106v331q18 -10 36 -14t37 -4q38 0 68.5 17.5t51.5 47.5v-58h108v460h-108v-270q0 -30 -13 -53.5t-36 -36.5t-53 -13q-45 0 -65.5 26.5t-20.5 76.5v270z" />
    <glyph glyph-name="pi" unicode="&#x3c0;" horiz-adv-x="565" 
d="M90 430v-430h105v430h-105zM30 460v-95h495v95h-495zM340 430v-309q0 -56 18.5 -84t53.5 -37t86 -9v95q-15 0 -27 4t-19 18.5t-7 47.5v274h-105z" />
    <glyph glyph-name="uni0400" unicode="&#x400;" horiz-adv-x="571" 
d="M151 0h353v104h-353v-104zM151 596h353v104h-353v-104zM151 324h333v102h-333v-102zM78 700v-700h116v700h-116zM111 923l180 -150l61 35l-150 160z" />
    <glyph glyph-name="uni0401" unicode="&#x401;" horiz-adv-x="571" 
d="M151 0h353v104h-353v-104zM151 596h353v104h-353v-104zM151 324h333v102h-333v-102zM78 700v-700h116v700h-116zM331 838q0 -27 20.5 -46t48.5 -19t48 19t20 46q0 29 -20 47.5t-48 18.5t-48.5 -18.5t-20.5 -47.5zM114 838q0 -27 20 -46t48 -19q29 0 48.5 19t19.5 46
q0 29 -19.5 47.5t-48.5 18.5q-28 0 -48 -18.5t-20 -47.5z" />
    <glyph glyph-name="uni0403" unicode="&#x403;" horiz-adv-x="464" 
d="M80 700v-700h119v591h255v109h-374zM447 923l-91 45l-150 -160l61 -35z" />
    <glyph glyph-name="uni040C" unicode="&#x40c;" horiz-adv-x="619" 
d="M78 700v-700h121v700h-121zM459 700l-295 -331l307 -369h146l-311 372l296 328h-143zM520 923l-91 45l-150 -160l61 -35z" />
    <glyph glyph-name="uni040D" unicode="&#x40d;" horiz-adv-x="783" 
d="M700 573l5 162l-622 -607l-5 -163zM194 700h-116v-735l116 133v602zM705 735l-116 -135v-600h116v735zM253 900l180 -150l61 35l-150 160z" />
    <glyph glyph-name="uni040E" unicode="&#x40e;" horiz-adv-x="581" 
d="M585 700h-125l-201 -446l61 -3l-187 449h-137l228 -490l-92 -210h124zM132 915q0 -36 18 -69t54.5 -53t88.5 -20q53 0 88.5 20t53.5 53t18 69h-82q0 -15 -7.5 -30.5t-25 -27t-45.5 -11.5q-29 0 -46.5 11.5t-25 27t-7.5 30.5h-82z" />
    <glyph glyph-name="uni0410" unicode="&#x410;" horiz-adv-x="690" 
d="M162 180h370l-22 100h-325zM345 502l112 -260l2 -29l95 -213h134l-343 739l-342 -739h133l97 219l2 26z" />
    <glyph glyph-name="uni0411" unicode="&#x411;" horiz-adv-x="598" 
d="M127 324h178q40 0 70 -12t46.5 -36.5t16.5 -61.5t-16.5 -61.5t-46.5 -36.5t-70 -12h-178v-104h193q68 0 121.5 26.5t85 75t31.5 112.5q0 65 -31.5 112.5t-85 73.5t-121.5 26h-193v-102zM80 700v-700h120v596h305v104h-425z" />
    <glyph glyph-name="uni0412" unicode="&#x412;" horiz-adv-x="601" 
d="M168 361h121q67 0 117 19t78.5 55.5t28.5 88.5q0 60 -28.5 99t-78.5 58t-117 19h-211v-700h223q75 0 131.5 21.5t88.5 66.5t32 114q0 50 -20 86t-55 59t-80.5 34.5t-96.5 11.5h-133v-66h126q30 0 55 -6.5t44 -21t29 -35.5t10 -50q0 -39 -18 -64.5t-49 -38.5t-71 -13h-98
v505h85q50 0 80.5 -24t30.5 -68q0 -29 -14 -49.5t-39 -31.5t-58 -11h-113v-58z" />
    <glyph glyph-name="uni0413" unicode="&#x413;" horiz-adv-x="464" 
d="M80 700v-700h119v591h255v109h-374z" />
    <glyph glyph-name="uni0414" unicode="&#x414;" horiz-adv-x="830" 
d="M413 497l175 -467h132l-307 705l-308 -705h133zM673 0v-110h112v216h-745v-216h113v110h520z" />
    <glyph glyph-name="uni0415" unicode="&#x415;" horiz-adv-x="571" 
d="M151 0h353v104h-353v-104zM151 596h353v104h-353v-104zM151 324h333v102h-333v-102zM78 700v-700h116v700h-116z" />
    <glyph glyph-name="uni0416" unicode="&#x416;" horiz-adv-x="971" 
d="M160 700h-142l298 -328l-313 -372h142l311 370zM429 700v-700h121v700h-121zM809 700l-286 -330l301 -370h145l-313 372l298 328h-145z" />
    <glyph glyph-name="uni0417" unicode="&#x417;" horiz-adv-x="631" 
d="M292 343q61 0 112 12.5t89 36.5t58.5 57t20.5 73q0 52 -28.5 94.5t-82.5 68.5t-131 26q-75 0 -130.5 -25.5t-85 -69.5t-29.5 -102h111q0 28 17 50t47.5 34.5t69.5 12.5q41 0 68.5 -12t41 -34.5t13.5 -50.5q0 -30 -18.5 -54.5t-54.5 -39t-88 -14.5v-63zM329 -12
q85 0 144 25t89 70t30 105q0 70 -39.5 113t-107.5 63.5t-153 20.5v-67q56 0 96.5 -14t62.5 -40t22 -64q0 -52 -37 -81t-109 -29q-48 0 -81 13.5t-51 38.5t-21 58h-119q0 -43 17 -81.5t51.5 -68t85.5 -46t120 -16.5z" />
    <glyph glyph-name="uni0418" unicode="&#x418;" horiz-adv-x="783" 
d="M700 573l5 162l-622 -607l-5 -163zM194 700h-116v-735l116 133v602zM705 735l-116 -135v-600h116v735z" />
    <glyph glyph-name="uni0419" unicode="&#x419;" horiz-adv-x="783" 
d="M700 573l5 162l-622 -607l-5 -163zM194 700h-116v-735l116 133v602zM705 735l-116 -135v-600h116v735zM257 910q0 -36 18 -69t54.5 -53t88.5 -20q53 0 88.5 20t53.5 53t18 69h-82q0 -15 -7.5 -30.5t-25 -27t-45.5 -11.5q-29 0 -46.5 11.5t-25 27t-7.5 30.5h-82z" />
    <glyph glyph-name="uni041A" unicode="&#x41a;" horiz-adv-x="619" 
d="M78 700v-700h121v700h-121zM459 700l-295 -331l307 -369h146l-311 372l296 328h-143z" />
    <glyph glyph-name="uni041B" unicode="&#x41b;" horiz-adv-x="703" 
d="M623 700h-515v-429q0 -37 -6.5 -68t-19 -54t-30.5 -35.5t-42 -12.5v-101q73 0 120.5 33t70.5 92.5t23 137.5v328h279v-591h120v700z" />
    <glyph glyph-name="uni041C" unicode="&#x41c;" horiz-adv-x="843" 
d="M208 426l213 -361l214 361l48 -426h122l-96 735l-288 -475l-287 475l-96 -735h122z" />
    <glyph glyph-name="uni041D" unicode="&#x41d;" horiz-adv-x="744" 
d="M125 321h500v109h-500v-109zM548 700v-700h118v700h-118zM78 700v-700h118v700h-118z" />
    <glyph glyph-name="uni041E" unicode="&#x41e;" horiz-adv-x="803" 
d="M163 350q0 72 31 128.5t84.5 88.5t122.5 32q71 0 124.5 -32t83.5 -88.5t30 -128.5t-30.5 -128t-84 -88.5t-123.5 -32.5q-69 0 -122.5 32.5t-84.5 88.5t-31 128zM38 350q0 -78 27 -145t76 -116t115.5 -76.5t144.5 -27.5q80 0 146 27.5t115 76.5t76 116t27 145
q0 79 -27 145t-76.5 114.5t-115.5 76t-145 27.5q-77 0 -143.5 -27.5t-116 -76t-76.5 -114.5t-27 -145z" />
    <glyph glyph-name="uni041F" unicode="&#x41f;" horiz-adv-x="738" 
d="M538 591v-591h120v700h-578v-700h120v591h338z" />
    <glyph glyph-name="uni0420" unicode="&#x420;" horiz-adv-x="578" 
d="M78 700v-700h118v700h-118zM148 596h141q61 0 98 -28.5t37 -84.5t-37 -85t-98 -29h-141v-104h141q77 0 133 26.5t87.5 75.5t31.5 116t-31.5 115.5t-87.5 75t-133 26.5h-141v-104z" />
    <glyph glyph-name="uni0421" unicode="&#x421;" horiz-adv-x="691" 
d="M166 350q0 75 33.5 130.5t87.5 86t118 30.5q50 0 90.5 -13t72.5 -35.5t56 -50.5v140q-43 37 -94.5 56t-128.5 19t-143.5 -26.5t-115.5 -75t-76.5 -115t-27.5 -146.5q0 -79 27.5 -145.5t76.5 -115.5t115.5 -75t143.5 -26t128.5 19t94.5 55v141q-24 -29 -56 -51.5
t-72.5 -35.5t-90.5 -13q-64 0 -118 31t-87.5 86.5t-33.5 129.5z" />
    <glyph glyph-name="uni0422" unicode="&#x422;" horiz-adv-x="504" 
d="M8 591h185v-591h118v591h185v109h-488v-109z" />
    <glyph glyph-name="uni0423" unicode="&#x423;" horiz-adv-x="586" 
d="M590 700h-127l-202 -446l61 -3l-187 449h-139l231 -490l-92 -210h126z" />
    <glyph glyph-name="uni0424" unicode="&#x424;" horiz-adv-x="843" 
d="M362 700v-700h120v700h-120zM683 350q0 -55 -27 -90.5t-75.5 -52.5t-112.5 -17h-93q-64 0 -112.5 17t-75.5 52.5t-27 90.5q0 56 27 91t75.5 52t112.5 17h93q64 0 112.5 -17t75.5 -52t27 -91zM803 350q0 85 -42 145t-115 92.5t-165 32.5h-118q-92 0 -165.5 -32.5
t-115.5 -92.5t-42 -145q0 -84 42 -144.5t115.5 -93t165.5 -32.5h118q92 0 165 32.5t115 93t42 144.5z" />
    <glyph glyph-name="uni0425" unicode="&#x425;" horiz-adv-x="608" 
d="M441 700l-134 -236l-131 236h-143l208 -336l-233 -364h143l155 269l150 -269h144l-227 364l212 336h-144z" />
    <glyph glyph-name="uni0426" unicode="&#x426;" horiz-adv-x="800" 
d="M198 109v591h-120v-700h575v-120h110v229h-95v591h-120v-591h-350z" />
    <glyph glyph-name="uni0427" unicode="&#x427;" horiz-adv-x="656" 
d="M298 256h217v105h-197zM455 700v-700h121v700h-121zM194 700h-116v-202q0 -67 25 -122t74 -87.5t121 -32.5l20 105q-40 0 -67.5 19t-42 51.5t-14.5 75.5v193z" />
    <glyph glyph-name="uni0428" unicode="&#x428;" horiz-adv-x="1024" 
d="M825 109h-255v591h-116v-591h-255v591h-119v-700h864v700h-119v-591z" />
    <glyph glyph-name="uni0429" unicode="&#x429;" horiz-adv-x="1079" 
d="M825 109h-255v591h-116v-591h-255v591h-119v-700h849v-120h110v229h-95v591h-119v-591z" />
    <glyph glyph-name="uni042A" unicode="&#x42a;" horiz-adv-x="689" 
d="M260 331h140q41 0 71.5 -12.5t47.5 -38t17 -62.5q0 -38 -17 -63.5t-47.5 -38t-71.5 -12.5h-140v-104h140q77 0 133 26.5t87.5 75.5t31.5 116t-31.5 115.5t-87.5 75t-133 26.5h-140v-104zM190 592v-592h119v700h-299v-108h180z" />
    <glyph glyph-name="uni042B" unicode="&#x42b;" horiz-adv-x="823" 
d="M625 700v-700h120v700h-120zM78 700v-700h118v700h-118zM148 331h141q41 0 71 -12.5t47 -38t17 -62.5q0 -38 -17 -63.5t-47 -38t-71 -12.5h-141v-104h141q77 0 133 26.5t87.5 75.5t31.5 116t-31.5 115.5t-87.5 75t-133 26.5h-141v-104z" />
    <glyph glyph-name="uni042C" unicode="&#x42c;" horiz-adv-x="578" 
d="M78 700v-700h118v700h-118zM148 331h141q41 0 71 -12.5t47 -38t17 -62.5q0 -38 -17 -63.5t-47 -38t-71 -12.5h-141v-104h141q77 0 133 26.5t87.5 75.5t31.5 116t-31.5 115.5t-87.5 75t-133 26.5h-141v-104z" />
    <glyph glyph-name="uni042D" unicode="&#x42d;" horiz-adv-x="691" 
d="M134 299h403v102h-403v-102zM533 350q0 -74 -35 -130t-91.5 -87.5t-120.5 -31.5q-49 0 -90 12.5t-73 34t-55 47.5v-133q43 -36 94.5 -55t127.5 -19q78 0 144 26t115.5 75t77 115.5t27.5 145.5q0 80 -27.5 146.5t-77 115t-115.5 75t-144 26.5q-76 0 -127.5 -19t-94.5 -56
v-133q23 26 55 47.5t73 34.5t90 13q64 0 120.5 -31.5t91.5 -87.5t35 -131z" />
    <glyph glyph-name="uni042E" unicode="&#x42e;" horiz-adv-x="1075" 
d="M125 321h267v109h-267v-109zM78 700v-700h118v700h-118zM436 350q0 72 30.5 128.5t84.5 88.5t123 32q71 0 124 -32t83.5 -88.5t30.5 -128.5t-30.5 -128t-84 -88.5t-123.5 -32.5q-69 0 -123 32.5t-84.5 88.5t-30.5 128zM310 350q0 -78 27 -145t76 -116t115.5 -76.5
t145.5 -27.5t145.5 27.5t115.5 76.5t76 116t27 145q0 79 -27.5 145t-76.5 114.5t-115 76t-145 27.5q-78 0 -144.5 -27.5t-115.5 -76t-76.5 -114.5t-27.5 -145z" />
    <glyph glyph-name="uni042F" unicode="&#x42f;" horiz-adv-x="595" 
d="M373 334h-128l-237 -334h142zM518 700h-119v-700h119v700zM447 598v102h-146q-75 0 -132 -27t-88 -75.5t-31 -114.5t31 -115t88 -76t132 -27h146v98h-141q-40 0 -70.5 13.5t-47.5 40t-17 63.5q0 38 17 64t47.5 40t70.5 14h141z" />
    <glyph glyph-name="uni0430" unicode="&#x430;" horiz-adv-x="509" 
d="M137 136q0 24 12 41.5t35 27t57 9.5q42 0 74 -10.5t63 -33.5v57q-8 10 -29 23t-52.5 23t-71.5 10q-60 0 -104.5 -18t-68.5 -52t-24 -81t21.5 -78.5t58 -47.5t81.5 -16q48 0 87 16.5t62 48t23 75.5l-16 53q0 -41 -16 -65t-44 -35t-63 -11q-23 0 -42.5 7.5t-31 21.5
t-11.5 35zM114 339q11 7 31.5 17.5t48 18.5t60.5 8q38 0 64.5 -17.5t26.5 -49.5v-316h106v328q0 46 -24.5 78t-67.5 48.5t-100 16.5q-62 0 -110 -18t-79 -37z" />
    <glyph glyph-name="uni0431" unicode="&#x431;" horiz-adv-x="571" 
d="M288 375q39 0 70 -18t49 -51t18 -76t-18 -75.5t-49 -51t-70 -18.5t-70 18.5t-49.5 51t-18.5 75.5l-115 60q0 -99 33 -166t90.5 -100.5t129.5 -33.5q73 0 128.5 31t87.5 85.5t32 123.5q0 70 -31.5 124t-86 85t-125.5 31zM102 230h48q0 35 12.5 62t32.5 45.5t45 28t48 9.5
l5 95q-43 0 -78 -16.5t-60.5 -47.5t-39 -75.5t-13.5 -100.5zM35 290l105 -55l-10 105q0 50 13.5 98t48 86t95.5 60q55 19 98.5 47.5t70.5 66.5t32 82h-105q-7 -36 -42 -66t-103 -55q-79 -29 -123.5 -80t-62 -123t-17.5 -166z" />
    <glyph glyph-name="uni0432" unicode="&#x432;" horiz-adv-x="482" 
d="M138 240v-47h133q20 0 34.5 -4t23 -12t13.5 -17.5t5 -22.5q0 -23 -18 -40t-58 -17h-133v-80h166q79 0 113.5 36.5t34.5 88.5q0 45 -22 70t-60 35t-86 10h-146zM138 220h136q43 0 78.5 12.5t57.5 38t22 64.5q0 45 -22 72.5t-57.5 40t-78.5 12.5h-136v-80h123
q31 0 48.5 -15t17.5 -38q0 -11 -4.5 -21t-13 -18t-20.5 -12t-28 -4h-123v-52zM75 460v-460h106v460h-106z" />
    <glyph glyph-name="uni0433" unicode="&#x433;" horiz-adv-x="341" 
d="M73 460v-460h107v365h158v95h-265z" />
    <glyph glyph-name="uni0434" unicode="&#x434;" horiz-adv-x="675" 
d="M335 305l125 -275l113 13l-238 452l-237 -452l112 -13zM525 0v-90h105v183h-590v-183h110v90h375z" />
    <glyph glyph-name="uni0435" unicode="&#x435;" horiz-adv-x="539" 
d="M99 205h404q1 9 1 16.5v13.5q0 73 -27.5 125.5t-79 81t-123.5 28.5q-65 0 -115 -24t-80.5 -67t-40.5 -100q-2 -12 -3 -24t-1 -25q0 -69 29 -123.5t82.5 -85.5t123.5 -31q63 0 105.5 15.5t72.5 43.5t53 66l-94 37q-13 -22 -32 -38.5t-43.5 -25.5t-56.5 -9
q-38 0 -67.5 16.5t-46 50.5t-16.5 84l2 28q0 40 16.5 69.5t45.5 45t65 15.5q35 0 59 -13.5t37.5 -38t17.5 -56.5h-288v-75z" />
    <glyph glyph-name="uni0436" unicode="&#x436;" horiz-adv-x="758" 
d="M608 460l-200 -190l220 -270h130l-225 263l205 197h-130zM430 460h-102v-460h102v460zM150 460h-130l205 -197l-225 -263h130l220 270z" />
    <glyph glyph-name="uni0437" unicode="&#x437;" horiz-adv-x="497" 
d="M252 230q88 -2 134 30.5t46 82.5q0 35 -22 64t-61 46t-88 17q-52 0 -92.5 -20t-63 -54t-22.5 -77h103q0 16 8.5 30.5t25.5 24t42 9.5q30 0 48 -14t18 -37t-18 -38.5t-58 -15.5v-48zM259 -10q54 0 98 17.5t69.5 50t25.5 77.5q0 64 -53.5 95.5t-146.5 29.5v-53
q31 0 52.5 -8t32.5 -22.5t11 -36.5q0 -19 -10.5 -34t-30.5 -23t-48 -8q-43 0 -64.5 22t-28.5 53h-106q8 -71 59.5 -115.5t139.5 -44.5z" />
    <glyph glyph-name="uni0438" unicode="&#x438;" horiz-adv-x="564" 
d="M486 360l5 135l-413 -395l-5 -135zM179 460h-106v-495l106 123v372zM491 495l-106 -122v-373h106v495z" />
    <glyph glyph-name="uni0439" unicode="&#x439;" horiz-adv-x="564" 
d="M486 360l5 135l-413 -395l-5 -135zM179 460h-106v-495l106 123v372zM491 495l-106 -122v-373h106v495zM126 695q0 -36 18 -69t54 -53t88 -20q53 0 89 20t54 53t18 69h-82q0 -15 -7.5 -30.5t-25 -27t-46.5 -11.5q-28 0 -45.5 11.5t-25 27t-7.5 30.5h-82z" />
    <glyph glyph-name="uni043A" unicode="&#x43a;" horiz-adv-x="495" 
d="M65 460v-460h106v460h-106zM340 460l-198 -190l219 -270h132l-219 270l199 190h-133z" />
    <glyph glyph-name="uni043B" unicode="&#x43b;" horiz-adv-x="584" 
d="M504 460h-421v-285q0 -45 -21.5 -61t-51.5 -16v-98q65 0 104.5 17.5t57 53t17.5 89.5v200h209v-360h106v460z" />
    <glyph glyph-name="uni043C" unicode="&#x43c;" horiz-adv-x="627" 
d="M507 0h115l-127 495l-58 -150zM282 94l30 -125l193 349l-10 177zM312 -31l30 125l-209 401l-10 -177zM5 0h115l70 345l-57 150z" />
    <glyph glyph-name="uni043D" unicode="&#x43d;" horiz-adv-x="585" 
d="M116 198h352v90h-352v-90zM410 460v-460h106v460h-106zM69 460v-460h106v460h-106z" />
    <glyph glyph-name="uni043E" unicode="&#x43e;" horiz-adv-x="564" 
d="M34 230q0 -70 32.5 -124.5t89 -85t126.5 -30.5q71 0 127 30.5t88.5 85t32.5 124.5q0 71 -32.5 125t-88.5 84.5t-127 30.5q-70 0 -126.5 -30.5t-89 -84.5t-32.5 -125zM145 230q0 43 18 76t49 51t70 18t70 -18t49 -51t18 -76t-18 -75.5t-49 -51t-70 -18.5t-70 18.5t-49 51
t-18 75.5z" />
    <glyph glyph-name="uni043F" unicode="&#x43f;" horiz-adv-x="545" 
d="M476 460h-407v-460h106v363h195v-363h106v460z" />
    <glyph glyph-name="uni0440" unicode="&#x440;" horiz-adv-x="589" 
d="M174 -220v680h-109v-680h109zM555 230q0 78 -31 131.5t-82 82.5t-111 29q-58 0 -101.5 -30t-67.5 -84t-24 -129q0 -74 24 -128.5t67.5 -84t101.5 -29.5q60 0 111 28.5t82 83t31 130.5zM443 230q0 -46 -19 -78t-50 -49t-69 -17q-32 0 -62 16.5t-49.5 48.5t-19.5 79
t19.5 79t49.5 48.5t62 16.5q38 0 69 -16.5t50 -49t19 -78.5z" />
    <glyph glyph-name="uni0441" unicode="&#x441;" horiz-adv-x="484" 
d="M141 230q0 43 19 76t51.5 52t72.5 19q32 0 62 -10t53.5 -27.5t34.5 -40.5v120q-24 23 -65 37t-90 14q-70 0 -126.5 -30.5t-89.5 -84.5t-33 -125q0 -70 33 -124.5t89.5 -85t126.5 -30.5q49 0 90 14t65 38v119q-11 -22 -34 -39.5t-52.5 -28t-63.5 -10.5q-40 0 -72.5 19
t-51.5 52t-19 76z" />
    <glyph glyph-name="uni0442" unicode="&#x442;" horiz-adv-x="301" 
d="M5 460v-95h291v95h-291zM98 440v-440h106v440h-106z" />
    <glyph glyph-name="uni0443" unicode="&#x443;" horiz-adv-x="473" 
d="M476 460h-116l-144 -361l51 -3l-147 364h-124l186 -406l-121 -274h115z" />
    <glyph glyph-name="uni0444" unicode="&#x444;" horiz-adv-x="619" 
d="M257 560v-660h105v660h-105zM34 230q0 -70 33.5 -124.5t95.5 -85t146 -30.5q85 0 147 30.5t95.5 85t33.5 124.5q0 71 -33.5 125t-95.5 84.5t-147 30.5q-84 0 -146 -30.5t-95.5 -84.5t-33.5 -125zM137 230q0 43 20 76t58 51t94 18q57 0 95 -18t57.5 -51t19.5 -76
t-19.5 -75.5t-57.5 -51t-95 -18.5q-56 0 -94 18.5t-58 51t-20 75.5z" />
    <glyph glyph-name="uni0445" unicode="&#x445;" horiz-adv-x="465" 
d="M334 460l-100 -144l-100 144h-124l166 -223l-176 -237h124l110 158l110 -158h121l-175 237l165 223h-121z" />
    <glyph glyph-name="uni0446" unicode="&#x446;" horiz-adv-x="588" 
d="M479 95v365h-109v-365h-192v365h-109v-460h391v-95h99v190h-80z" />
    <glyph glyph-name="uni0447" unicode="&#x447;" horiz-adv-x="510" 
d="M230 130h157v95h-139zM330 460v-460h109v460h-109zM159 460h-109v-132q0 -67 16 -111t55.5 -65.5t108.5 -21.5l18 95q-33 0 -52.5 10t-28 31.5t-8.5 56.5v137z" />
    <glyph glyph-name="uni0448" unicode="&#x448;" horiz-adv-x="803" 
d="M455 95v365h-107v-365h-173v365h-106v-460h665v460h-106v-365h-173z" />
    <glyph glyph-name="uni0449" unicode="&#x449;" horiz-adv-x="843" 
d="M455 95v365h-107v-365h-173v365h-106v-460h646v-95h99v190h-80v365h-106v-365h-173z" />
    <glyph glyph-name="uni044A" unicode="&#x44a;" horiz-adv-x="592" 
d="M232 212h132q37 0 55.5 -16t18.5 -46q0 -19 -8.5 -33t-25 -21t-40.5 -7h-132v-89h143q48 0 86 17t60 51t22 83q0 74 -48.5 108.5t-119.5 34.5h-143v-82zM160 365v-365h104v460h-259v-95h155z" />
    <glyph glyph-name="uni044B" unicode="&#x44b;" horiz-adv-x="693" 
d="M515 460v-460h109v460h-109zM69 460v-460h109v460h-109zM145 212h132q36 0 55 -16t19 -46q0 -19 -8.5 -33t-25 -21t-40.5 -7h-132v-89h143q48 0 86 17t60 51t22 83q0 74 -48.5 108.5t-119.5 34.5h-143v-82z" />
    <glyph glyph-name="uni044C" unicode="&#x44c;" horiz-adv-x="508" 
d="M71 460v-460h109v460h-109zM147 212h132q37 0 55.5 -16t18.5 -46q0 -19 -8.5 -33t-25 -21t-40.5 -7h-132v-89h143q48 0 86 17t60 51t22 83q0 74 -48.5 108.5t-119.5 34.5h-143v-82z" />
    <glyph glyph-name="uni044D" unicode="&#x44d;" horiz-adv-x="484" 
d="M127 272v-84h245l53 84h-298zM343 230q0 -47 -18.5 -81.5t-51 -53.5t-73.5 -19q-33 0 -63 10t-52.5 28t-34.5 40v-112q24 -24 65 -38t90 -14q72 0 128 30.5t88.5 85t32.5 124.5q0 71 -32.5 125t-88.5 84.5t-128 30.5q-49 0 -90 -14t-65 -37v-112q12 23 35 40t53 27t62 10
q41 0 73.5 -19t51 -54t18.5 -81z" />
    <glyph glyph-name="uni044E" unicode="&#x44e;" horiz-adv-x="776" 
d="M116 198h210v90h-210v-90zM69 460v-460h106v460h-106zM246 230q0 -70 33 -124.5t89 -85t126 -30.5q71 0 127 30.5t88.5 85t32.5 124.5q0 71 -32.5 125t-88.5 84.5t-127 30.5q-70 0 -126 -30.5t-89 -84.5t-33 -125zM357 230q0 43 18.5 76t49.5 51t69 18q39 0 70 -18
t49 -51t18 -76t-18 -75.5t-49 -51t-70 -18.5q-38 0 -69 18.5t-49.5 51t-18.5 75.5z" />
    <glyph glyph-name="uni044F" unicode="&#x44f;" horiz-adv-x="508" 
d="M164 0l152 228h-110l-158 -228h116zM462 0v460h-109v-460h109zM394 259h-135q-25 0 -42 6t-25.5 18t-8.5 32q0 19 8.5 31t25.5 18t42 6h135v90h-143q-47 0 -87.5 -14t-64.5 -44.5t-24 -81.5t24 -82.5t64.5 -46t87.5 -14.5h143v82z" />
    <glyph glyph-name="uni0450" unicode="&#x450;" horiz-adv-x="539" 
d="M99 205h404q1 9 1 16.5v13.5q0 73 -27.5 125.5t-79 81t-123.5 28.5q-65 0 -115 -24t-80.5 -67t-40.5 -100q-2 -12 -3 -24t-1 -25q0 -69 29 -123.5t82.5 -85.5t123.5 -31q63 0 105.5 15.5t72.5 43.5t53 66l-94 37q-13 -22 -32 -38.5t-43.5 -25.5t-56.5 -9
q-38 0 -67.5 16.5t-46 50.5t-16.5 84l2 28q0 40 16.5 69.5t45.5 45t65 15.5q35 0 59 -13.5t37.5 -38t17.5 -56.5h-288v-75zM117 680l180 -150l61 35l-150 160z" />
    <glyph glyph-name="uni0451" unicode="&#x451;" horiz-adv-x="539" 
d="M99 205h404q1 9 1 16.5v13.5q0 73 -27.5 125.5t-79 81t-123.5 28.5q-65 0 -115 -24t-80.5 -67t-40.5 -100q-2 -12 -3 -24t-1 -25q0 -69 29 -123.5t82.5 -85.5t123.5 -31q63 0 105.5 15.5t72.5 43.5t53 66l-94 37q-13 -22 -32 -38.5t-43.5 -25.5t-56.5 -9
q-38 0 -67.5 16.5t-46 50.5t-16.5 84l2 28q0 40 16.5 69.5t45.5 45t65 15.5q35 0 59 -13.5t37.5 -38t17.5 -56.5h-288v-75zM315 596q0 -27 20 -46.5t48 -19.5q29 0 48.5 19.5t19.5 46.5q0 28 -19.5 47t-48.5 19q-28 0 -48 -19t-20 -47zM97 596q0 -27 20.5 -46.5t48.5 -19.5
t48 19.5t20 46.5q0 28 -20 47t-48 19t-48.5 -19t-20.5 -47z" />
    <glyph glyph-name="uni0453" unicode="&#x453;" horiz-adv-x="341" 
d="M73 460v-460h107v365h158v95h-265zM386 680l-92 45l-150 -160l62 -35z" />
    <glyph glyph-name="uni045C" unicode="&#x45c;" horiz-adv-x="440" 
d="M65 460v-460h106v460h-106zM340 460l-198 -190l219 -270h132l-219 270l199 190h-133zM449 680l-91 45l-150 -160l61 -35z" />
    <glyph glyph-name="uni045D" unicode="&#x45d;" horiz-adv-x="564" 
d="M486 360l5 135l-413 -395l-5 -135zM179 460h-106v-495l106 123v372zM491 495l-106 -122v-373h106v495zM121 705l180 -150l62 35l-150 160z" />
    <glyph glyph-name="uni045E" unicode="&#x45e;" horiz-adv-x="440" 
d="M476 460h-116l-144 -361l51 -3l-147 364h-124l186 -406l-121 -274h115zM76 673q0 -37 18 -69.5t54 -53t88 -20.5q53 0 89 20.5t54 53t18 69.5h-82q0 -15 -7.5 -31t-25 -27t-46.5 -11q-28 0 -45.5 11t-25 27t-7.5 31h-82z" />
    <glyph glyph-name="Wgrave" unicode="&#x1e80;" horiz-adv-x="1020" 
d="M510 795l61 35l-150 160l-91 -45zM712 232l-202 503l-198 -503l-167 468h-137l286 -737l216 495l216 -495l287 737h-138z" />
    <glyph glyph-name="wgrave" unicode="&#x1e81;" horiz-adv-x="713" 
d="M353 555l61 35l-150 160l-91 -45zM0 460l215 -492l138 310l145 -310l215 492h-118l-108 -275l-134 310l-128 -308l-107 273h-118z" />
    <glyph glyph-name="Wacute" unicode="&#x1e82;" horiz-adv-x="1020" 
d="M510 796l180 150l-91 45l-150 -160zM712 232l-202 503l-198 -503l-167 468h-137l286 -737l216 495l216 -495l287 737h-138z" />
    <glyph glyph-name="wacute" unicode="&#x1e83;" horiz-adv-x="713" 
d="M352 556l180 150l-91 45l-150 -160zM0 460l215 -492l138 310l145 -310l215 492h-118l-108 -275l-134 310l-128 -308l-107 273h-118z" />
    <glyph glyph-name="Wdieresis" unicode="&#x1e84;" horiz-adv-x="1020" 
d="M551 861q0 -28 20 -47t48 -19q29 0 48.5 19t19.5 47t-19.5 47t-48.5 19q-28 0 -48 -19t-20 -47zM333 861q0 -28 20.5 -47t48.5 -19t48 19t20 47t-20 47t-48 19t-48.5 -19t-20.5 -47zM712 232l-202 503l-198 -503l-167 468h-137l286 -737l216 495l216 -495l287 737h-138z
" />
    <glyph glyph-name="wdieresis" unicode="&#x1e85;" horiz-adv-x="713" 
d="M393 621q0 -28 20 -47t48 -19q29 0 48.5 19t19.5 47t-19.5 47t-48.5 19q-28 0 -48 -19t-20 -47zM175 621q0 -28 20.5 -47t48.5 -19t48 19t20 47t-20 47t-48 19t-48.5 -19t-20.5 -47zM0 460l215 -492l138 310l145 -310l215 492h-118l-108 -275l-134 310l-128 -308
l-107 273h-118z" />
    <glyph glyph-name="uni1E86" unicode="&#x1e86;" horiz-adv-x="1020" 
d="M442 861q0 -27 20 -46t48 -19q29 0 48.5 19t19.5 46q0 29 -19.5 47.5t-48.5 18.5q-28 0 -48 -18.5t-20 -47.5zM712 232l-202 503l-198 -503l-167 468h-137l286 -737l216 495l216 -495l287 737h-138z" />
    <glyph glyph-name="uni1E87" unicode="&#x1e87;" horiz-adv-x="713" 
d="M285 621q0 -27 20 -46t48 -19q29 0 48.5 19t19.5 46q0 29 -19.5 47.5t-48.5 18.5q-28 0 -48 -18.5t-20 -47.5zM0 460l215 -492l138 310l145 -310l215 492h-118l-108 -275l-134 310l-128 -308l-107 273h-118z" />
    <glyph glyph-name="uni1E88" unicode="&#x1e88;" horiz-adv-x="1020" 
d="M442 -163q0 -27 20 -46t48 -19q29 0 48.5 19t19.5 46q0 29 -19.5 47.5t-48.5 18.5q-28 0 -48 -18.5t-20 -47.5zM712 232l-202 503l-198 -503l-167 468h-137l286 -737l216 495l216 -495l287 737h-138z" />
    <glyph glyph-name="uni1E89" unicode="&#x1e89;" horiz-adv-x="713" 
d="M288 -158q0 -27 20 -46t48 -19q29 0 48.5 19t19.5 46q0 29 -19.5 47.5t-48.5 18.5q-28 0 -48 -18.5t-20 -47.5zM0 460l215 -492l138 310l145 -310l215 492h-118l-108 -275l-134 310l-128 -308l-107 273h-118z" />
    <glyph glyph-name="uni1E9E" unicode="&#x1e9e;" horiz-adv-x="756" 
d="M470 -12q-64 0 -116 16t-94 42l40 98q38 -21 74.5 -34.5t81.5 -13.5q35 0 66 8.5t50 27.5t19 50q0 32 -17.5 49.5t-43.5 28t-51.5 21.5t-43 29t-17.5 49q0 26 11.5 43.5t28.5 29.5l34 24t28.5 26.5t11.5 36.5q0 19 -12.5 38t-40.5 30.5t-72 11.5q-60 0 -107 -24.5
t-73.5 -75.5t-26.5 -130l2 -371h-122v382q0 82 24.5 144.5t69 104t106 62.5t136.5 21q77 0 132 -21.5t83.5 -59t28.5 -85.5q0 -35 -10.5 -59.5t-27 -42.5t-33 -31.5t-27 -25t-10.5 -23.5q0 -16 16.5 -26t41 -20t49 -26t41 -42.5t16.5 -70.5q0 -57 -30.5 -100t-86 -67
t-129.5 -24z" />
    <glyph glyph-name="Ygrave" unicode="&#x1ef2;" horiz-adv-x="601" 
d="M301 772l61 35l-150 160l-91 -45zM463 700l-163 -299l-162 299h-135l238 -406v-294h120v295l237 405h-135z" />
    <glyph glyph-name="ygrave" unicode="&#x1ef3;" horiz-adv-x="473" 
d="M236 530l61 35l-150 160l-91 -45zM476 460h-116l-144 -361l51 -3l-147 364h-124l186 -406l-121 -274h115z" />
    <glyph glyph-name="uni2010" unicode="&#x2010;" horiz-adv-x="215" 
d="M5 189h205v97h-205v-97z" />
    <glyph glyph-name="figuredash" unicode="&#x2012;" horiz-adv-x="605" 
d="M70 189h461v97h-461v-97z" />
    <glyph glyph-name="endash" unicode="&#x2013;" horiz-adv-x="758" 
d="M70 189h615v97h-615v-97z" />
    <glyph glyph-name="emdash" unicode="&#x2014;" horiz-adv-x="910" 
d="M70 189h769v97h-769v-97z" />
    <glyph glyph-name="quoteleft" unicode="&#x2018;" horiz-adv-x="298" 
d="M190 460l58 240h-77l-101 -240h120z" />
    <glyph glyph-name="quoteright" unicode="&#x2019;" horiz-adv-x="298" 
d="M108 700l-58 -240h76l102 240h-120z" />
    <glyph glyph-name="quotesinglbase" unicode="&#x201a;" horiz-adv-x="298" 
d="M118 80l-58 -240h76l102 240h-120z" />
    <glyph glyph-name="quotedblleft" unicode="&#x201c;" horiz-adv-x="510" 
d="M190 460l58 240h-77l-101 -240h120zM403 460l57 240h-76l-101 -240h120z" />
    <glyph glyph-name="quotedblright" unicode="&#x201d;" horiz-adv-x="510" 
d="M108 700l-58 -240h76l102 240h-120zM320 700l-57 -240h76l101 240h-120z" />
    <glyph glyph-name="quotedblbase" unicode="&#x201e;" horiz-adv-x="510" 
d="M108 80l-58 -240h76l102 240h-120zM320 80l-57 -240h76l101 240h-120z" />
    <glyph glyph-name="dagger" unicode="&#x2020;" horiz-adv-x="595" 
d="M90 540v-95h415v95h-415zM245 700v-850h105v850h-105z" />
    <glyph glyph-name="daggerdbl" unicode="&#x2021;" horiz-adv-x="595" 
d="M90 135v-95h415v95h-415zM90 540v-95h415v95h-415zM245 700v-850h105v850h-105z" />
    <glyph glyph-name="bullet" unicode="&#x2022;" horiz-adv-x="300" 
d="M84 426q0 -28 20.5 -49t50.5 -21t50 21t20 49q0 29 -20 49.5t-50 20.5t-50.5 -20.5t-20.5 -49.5z" />
    <glyph glyph-name="ellipsis" unicode="&#x2026;" horiz-adv-x="910" 
d="M84 51q0 -28 20.5 -49t50.5 -21t50 21t20 49q0 29 -20 49.5t-50 20.5t-50.5 -20.5t-20.5 -49.5zM384 51q0 -28 20.5 -49t50.5 -21t50 21t20 49q0 29 -20 49.5t-50 20.5t-50.5 -20.5t-20.5 -49.5zM684 51q0 -28 20.5 -49t50.5 -21t50 21t20 49q0 29 -20 49.5t-50 20.5
t-50.5 -20.5t-20.5 -49.5z" />
    <glyph glyph-name="perthousand" unicode="&#x2030;" horiz-adv-x="1229" 
d="M858 157q0 -47 21.5 -86t60.5 -61.5t88 -22.5q51 0 89 22.5t60 61.5t22 86t-22 85.5t-60 61.5t-89 23q-49 0 -88 -23t-60.5 -61.5t-21.5 -85.5zM950 157q0 23 9.5 41.5t27 30t41.5 11.5q25 0 42 -11.5t26.5 -30.5t9.5 -41t-9.5 -41.5t-26.5 -31t-42 -11.5
q-24 0 -41.5 11.5t-27 31t-9.5 41.5zM30 544q0 -47 21.5 -85.5t60.5 -61.5t88 -23q51 0 89.5 23t60 61.5t21.5 85.5t-21.5 85.5t-60 61.5t-89.5 23q-49 0 -88 -23t-60.5 -61.5t-21.5 -85.5zM123 544q0 23 9.5 42t27 30t40.5 11q25 0 42 -11t27 -30t10 -42q0 -22 -10 -41.5
t-27 -31t-42 -11.5q-23 0 -40.5 11.5t-27 31t-9.5 41.5zM448 157q0 -47 21.5 -86t60.5 -61.5t88 -22.5q51 0 89 22.5t60 61.5t22 86t-22 85.5t-60 61.5t-89 23q-49 0 -88 -23t-60.5 -61.5t-21.5 -85.5zM540 157q0 23 9.5 41.5t27 30t41.5 11.5q25 0 42 -11.5t26.5 -30.5
t9.5 -41t-9.5 -41.5t-26.5 -31t-42 -11.5q-24 0 -41.5 11.5t-27 31t-9.5 41.5zM598 700l-485 -700h108l485 700h-108z" />
    <glyph glyph-name="uni2031" unicode="&#x2031;" horiz-adv-x="1639" 
d="M1268 157q0 -47 21.5 -86t60.5 -61.5t88 -22.5q51 0 89 22.5t60 61.5t22 86t-22 85.5t-60 61.5t-89 23q-49 0 -88 -23t-60.5 -61.5t-21.5 -85.5zM1360 157q0 23 9.5 41.5t27 30t41.5 11.5q25 0 42 -11.5t26.5 -30.5t9.5 -41t-9.5 -41.5t-26.5 -31t-42 -11.5
q-24 0 -41.5 11.5t-27 31t-9.5 41.5zM858 157q0 -47 21.5 -86t60.5 -61.5t88 -22.5q51 0 89 22.5t60 61.5t22 86t-22 85.5t-60 61.5t-89 23q-49 0 -88 -23t-60.5 -61.5t-21.5 -85.5zM950 157q0 23 9.5 41.5t27 30t41.5 11.5q25 0 42 -11.5t26.5 -30.5t9.5 -41t-9.5 -41.5
t-26.5 -31t-42 -11.5q-24 0 -41.5 11.5t-27 31t-9.5 41.5zM30 544q0 -47 21.5 -85.5t60.5 -61.5t88 -23q51 0 89.5 23t60 61.5t21.5 85.5t-21.5 85.5t-60 61.5t-89.5 23q-49 0 -88 -23t-60.5 -61.5t-21.5 -85.5zM123 544q0 23 9.5 42t27 30t40.5 11q25 0 42 -11t27 -30
t10 -42q0 -22 -10 -41.5t-27 -31t-42 -11.5q-23 0 -40.5 11.5t-27 31t-9.5 41.5zM448 157q0 -47 21.5 -86t60.5 -61.5t88 -22.5q51 0 89 22.5t60 61.5t22 86t-22 85.5t-60 61.5t-89 23q-49 0 -88 -23t-60.5 -61.5t-21.5 -85.5zM540 157q0 23 9.5 41.5t27 30t41.5 11.5
q25 0 42 -11.5t26.5 -30.5t9.5 -41t-9.5 -41.5t-26.5 -31t-42 -11.5q-24 0 -41.5 11.5t-27 31t-9.5 41.5zM598 700l-485 -700h108l485 700h-108z" />
    <glyph glyph-name="guilsinglleft" unicode="&#x2039;" horiz-adv-x="350" 
d="M138 259l150 186l-68 53l-185 -243l185 -242l68 52z" />
    <glyph glyph-name="guilsinglright" unicode="&#x203a;" horiz-adv-x="350" 
d="M213 251l-150 -186l67 -52l185 242l-185 243l-67 -53z" />
    <glyph glyph-name="uni203D" unicode="&#x203d;" horiz-adv-x="585" 
d="M423 493q0 -38 -22.5 -71.5t-63 -54.5t-92.5 -21l37 -61q35 0 70 10t66 28.5t56 44.5t39.5 59t14.5 73q0 48 -18.5 87t-51 67t-74.5 43.5t-90 15.5q-60 0 -105.5 -15.5t-78 -43t-55.5 -62.5l80 -59q16 28 37.5 46.5t49.5 28.5t60 10q43 0 74.5 -14.5t49 -42.5t17.5 -68z
M206 508l23 -325h72l23 325h-118zM196 49q0 -28 21 -48t51 -20t50.5 20t20.5 48t-20.5 47.5t-50.5 19.5t-51 -19.5t-21 -47.5z" />
    <glyph glyph-name="fraction" unicode="&#x2044;" horiz-adv-x="715" 
d="M580 700l-520 -700h88l520 700h-88z" />
    <glyph glyph-name="uni2070" unicode="&#x2070;" horiz-adv-x="380" 
d="M96 490q0 45 11.5 79.5t33 54t49.5 19.5q29 0 50 -19.5t32.5 -54t11.5 -79.5t-11.5 -79.5t-32.5 -54t-50 -19.5q-28 0 -49.5 19.5t-33 54t-11.5 79.5zM26 490q0 -64 21 -113t58 -76.5t85 -27.5q49 0 85.5 27.5t57 76.5t20.5 113q0 65 -20.5 113.5t-57 76t-85.5 27.5
q-48 0 -85 -27.5t-58 -76t-21 -113.5z" />
    <glyph glyph-name="uni2074" unicode="&#x2074;" horiz-adv-x="402" 
d="M24 360h347v62h-95l-10 -5h-183zM98 372l138 202v-186l-4 -6v-102h73v420h-43l-238 -340z" />
    <glyph glyph-name="uni2075" unicode="&#x2075;" horiz-adv-x="369" 
d="M340 415q0 42 -16.5 73.5t-45.5 49t-64 17.5q-28 0 -55 -10t-49 -34l-46 -44q32 20 57.5 26.5t53.5 6.5q37 0 63 -21t26 -60q0 -38 -23.5 -60t-65.5 -22q-29 0 -58 18t-48 43l-41 -52q24 -30 61 -52.5t95 -22.5q41 0 76.5 15.5t57.5 48t22 80.5zM173 636h163v62h-216
l-56 -231l77 52z" />
    <glyph glyph-name="uni2076" unicode="&#x2076;" horiz-adv-x="361" 
d="M100 420q0 26 11.5 46t30.5 31t43 11t43.5 -11t30 -31t10.5 -46q0 -39 -23.5 -63t-60.5 -24q-36 0 -60.5 24t-24.5 63zM199 697l-133 -178q-15 -20 -25 -45t-10 -54q0 -46 20.5 -80t55.5 -51.5t78 -17.5t78 17.5t55.5 51.5t20.5 80q0 40 -18 70.5t-46.5 48t-61.5 17.5
q-21 0 -37 -4.5t-30 -20.5l10 2l134 164h-91z" />
    <glyph glyph-name="uni2077" unicode="&#x2077;" horiz-adv-x="364" 
d="M27 633h209l-172 -353h75l202 420h-314v-67z" />
    <glyph glyph-name="uni2078" unicode="&#x2078;" horiz-adv-x="338" 
d="M42 599q0 -34 17 -58.5t46.5 -37.5t63.5 -13q35 0 63.5 13t45.5 37.5t17 58.5q0 32 -17 56.5t-45.5 38.5t-63.5 14q-36 0 -64.5 -14t-45.5 -38.5t-17 -56.5zM110 592q0 26 16.5 42.5t42.5 16.5q25 0 41.5 -16.5t16.5 -42.5q0 -18 -7.5 -31.5t-21 -21t-29.5 -7.5
t-29.5 7.5t-21.5 21t-8 31.5zM27 394q0 -34 19 -62t51.5 -43.5t71.5 -15.5t71 15.5t51 43.5t19 62q0 31 -12 54t-32.5 37.5t-45.5 22.5t-51 8t-51.5 -8t-46 -22.5t-32.5 -37.5t-12 -54zM97 404q0 20 10.5 36t26.5 25t35 9q18 0 34.5 -9t26.5 -25t10 -36q0 -35 -21.5 -53
t-49.5 -18t-50 18t-22 53z" />
    <glyph glyph-name="uni2079" unicode="&#x2079;" horiz-adv-x="360" 
d="M273 560q0 -26 -10.5 -46t-30 -31t-43.5 -11t-43 11t-30.5 31t-11.5 46q0 40 24.5 63.5t60.5 23.5q37 0 60.5 -23.5t23.5 -63.5zM174 283l133 178q16 21 26 46t10 53q0 47 -20.5 80.5t-55.5 51.5t-78 18t-78 -18t-55.5 -51.5t-20.5 -80.5q0 -39 18 -70t46.5 -48.5
t61.5 -17.5q21 0 37 5t29 20l-10 -2l-133 -164h90z" />
    <glyph glyph-name="uni2080" unicode="&#x2080;" horiz-adv-x="380" 
d="M96 210q0 45 11.5 79.5t33 54t49.5 19.5q29 0 50 -19.5t32.5 -54t11.5 -79.5t-11.5 -79.5t-32.5 -54t-50 -19.5q-28 0 -49.5 19.5t-33 54t-11.5 79.5zM26 210q0 -64 21 -113t58 -76.5t85 -27.5q49 0 85.5 27.5t57 76.5t20.5 113q0 65 -20.5 113.5t-57 76t-85.5 27.5
q-48 0 -85 -27.5t-58 -76t-21 -113.5z" />
    <glyph glyph-name="uni2081" unicode="&#x2081;" horiz-adv-x="333" 
d="M90 323l98 27v-349h69v427l-167 -38v-67z" />
    <glyph glyph-name="uni2082" unicode="&#x2082;" horiz-adv-x="372" 
d="M26 2h320v66h-181l118 117q26 25 42 53.5t16 60.5q0 30 -15 60.5t-45.5 50.5t-79.5 20q-47 0 -81.5 -20.5t-52.5 -55.5t-18 -80h70q0 42 23 67t58 25q24 0 38.5 -9.5t22 -24.5t7.5 -32q0 -25 -12.5 -47t-35.5 -46z" />
    <glyph glyph-name="uni2083" unicode="&#x2083;" horiz-adv-x="336" 
d="M148 206q45 0 79.5 13.5t54.5 37.5t20 56q0 46 -34 80t-95 34q-58 0 -94.5 -33.5t-36.5 -84.5h67q0 25 18.5 41.5t45.5 16.5q29 0 43 -15.5t14 -41.5q0 -18 -10 -33t-28 -24t-44 -9v-38zM169 -7q65 0 105 33t40 87q0 42 -22.5 68t-59.5 38t-84 12v-40q29 0 50 -8.5
t32.5 -24t11.5 -38.5q0 -31 -19.5 -48.5t-51.5 -17.5t-54 18t-22 48h-71q0 -34 17.5 -63.5t50.5 -46.5t77 -17z" />
    <glyph glyph-name="uni2084" unicode="&#x2084;" horiz-adv-x="404" 
d="M24 80h346v62h-94l-10 -5h-184zM97 92l139 202v-186l-5 -6v-102h73v420h-43l-237 -340z" />
    <glyph glyph-name="uni2085" unicode="&#x2085;" horiz-adv-x="372" 
d="M341 135q0 42 -16.5 73.5t-45.5 49t-64 17.5q-28 0 -54.5 -10t-49.5 -34l-46 -44q32 20 58 26.5t53 6.5q37 0 63 -21t26 -60q0 -38 -23 -60t-66 -22q-29 0 -58 18t-48 43l-41 -52q24 -30 61 -52.5t95 -22.5q41 0 76.5 15.5t57.5 48t22 80.5zM175 356h162v62h-216
l-56 -231l77 52z" />
    <glyph glyph-name="uni2086" unicode="&#x2086;" horiz-adv-x="366" 
d="M101 140q0 26 11 46t30 31t44 11q24 0 43 -11t30 -31t11 -46q0 -39 -24 -63t-60 -24t-60.5 24t-24.5 63zM200 417l-133 -178q-15 -20 -25.5 -45t-10.5 -54q0 -46 21 -80t56 -51.5t78 -17.5t78 17.5t55.5 51.5t20.5 80q0 40 -18 70.5t-47 48t-62 17.5q-21 0 -36.5 -4.5
t-29.5 -20.5l10 2l134 164h-91z" />
    <glyph glyph-name="uni2087" unicode="&#x2087;" horiz-adv-x="366" 
d="M29 353h208l-172 -353h76l201 420h-313v-67z" />
    <glyph glyph-name="uni2088" unicode="&#x2088;" horiz-adv-x="341" 
d="M44 319q0 -34 17 -58.5t46 -37.5t63 -13q35 0 64 13t46 37.5t17 58.5q0 32 -17 56.5t-45.5 38.5t-64.5 14q-35 0 -64 -14t-45.5 -38.5t-16.5 -56.5zM112 312q0 26 16.5 42.5t41.5 16.5q26 0 42.5 -16.5t16.5 -42.5q0 -18 -7.5 -31.5t-21 -21t-30.5 -7.5q-16 0 -29 7.5
t-21 21t-8 31.5zM29 114q0 -34 19 -62t51.5 -43.5t70.5 -15.5q40 0 72 15.5t51 43.5t19 62q0 31 -12 54t-32.5 37.5t-46 22.5t-51.5 8t-51 -8t-45.5 -22.5t-32.5 -37.5t-12 -54zM99 124q0 20 10 36t26.5 25t34.5 9q19 0 35 -9t26.5 -25t10.5 -36q0 -35 -21.5 -53t-50.5 -18
q-27 0 -49 18t-22 53z" />
    <glyph glyph-name="uni2089" unicode="&#x2089;" horiz-adv-x="367" 
d="M264 280q0 -26 -11 -46t-30 -31t-44 -11q-24 0 -43 11t-30 31t-11 46q0 40 24 63.5t60 23.5q37 0 61 -23.5t24 -63.5zM165 3l133 178q15 21 25.5 46t10.5 53q0 47 -21 80.5t-55.5 51.5t-78.5 18q-42 0 -77 -18t-56 -51.5t-21 -80.5q0 -40 18 -70.5t47 -48t61 -17.5
q21 0 37 5t30 20l-10 -2l-134 -164h91z" />
    <glyph glyph-name="Euro" unicode="&#x20ac;" horiz-adv-x="610" 
d="M31 397h497v62h-497v-62zM25 272h479v63h-479v-63zM193 350q0 80 24.5 138t68.5 90t102 32q86 0 150 -62v125q-34 20 -71.5 30.5t-78.5 10.5q-68 0 -124 -27t-97 -76.5t-62.5 -116t-21.5 -144.5q0 -105 38.5 -187t107 -129.5t159.5 -47.5q41 0 78.5 11t71.5 30v125
q-64 -62 -150 -62q-58 0 -102 32t-68.5 91t-24.5 137z" />
    <glyph glyph-name="ruble" unicode="&#x20bd;" horiz-adv-x="666" 
d="M150 700v-700h119v700h-119zM217 596h148q47 0 80.5 -10.5t52 -33.5t18.5 -59q0 -37 -18.5 -60t-52 -33.5t-80.5 -10.5h-148v-104h148q77 0 136 20.5t93 67t34 120.5q0 75 -34 120.5t-93 66t-136 20.5h-148v-104zM255 94h205v97h-205v-97zM30 288h205v97h-205v-97zM30 94
h205v97h-205v-97z" />
    <glyph glyph-name="trademark" unicode="&#x2122;" horiz-adv-x="698" 
d="M31 646h93v-296h59v296h93v54h-245v-54zM578 599l29 -249h60l-47 367zM332 717l-48 -367h61l29 249zM620 717l-144 -237l-144 237v-97l144 -238l144 238v97z" />
    <glyph glyph-name="uni2150" unicode="&#x2150;" horiz-adv-x="882" 
d="M583 700l-520 -700h88l520 700h-88zM28 596l97 27v-349h70v427l-167 -38v-67zM542 353h208l-172 -353h76l201 420h-313v-67z" />
    <glyph glyph-name="uni2151" unicode="&#x2151;" horiz-adv-x="824" 
d="M581 700l-520 -700h87l520 700h-87zM28 596l97 27v-349h70v427l-167 -38v-67zM735 280q0 -26 -11 -46t-30.5 -31t-43.5 -11t-43 11t-30.5 31t-11.5 46q0 40 24.5 63.5t60.5 23.5q37 0 61 -23.5t24 -63.5zM636 3l132 178q16 21 26 46t10 53q0 47 -20.5 80.5t-55 51.5
t-78.5 18q-43 0 -78 -18t-55.5 -51.5t-20.5 -80.5q0 -40 18 -70.5t46.5 -48t61.5 -17.5q21 0 37 5t30 20l-10 -2l-134 -164h91z" />
    <glyph glyph-name="uni2152" unicode="&#x2152;" horiz-adv-x="1133" 
d="M581 700l-520 -700h87l520 700h-87zM28 596l97 27v-349h70v427l-167 -38v-67zM513 323l98 27v-349h69v427l-167 -38v-67zM844 210q0 45 11.5 79.5t33 54t49.5 19.5q29 0 50 -19.5t32.5 -54t11.5 -79.5t-11.5 -79.5t-32.5 -54t-50 -19.5q-28 0 -49.5 19.5t-33 54
t-11.5 79.5zM774 210q0 -64 21 -113t58 -76.5t85 -27.5q49 0 85.5 27.5t57 76.5t20.5 113q0 65 -20.5 113.5t-57 76t-85.5 27.5q-48 0 -85 -27.5t-58 -76t-21 -113.5z" />
    <glyph glyph-name="onethird" unicode="&#x2153;" horiz-adv-x="803" 
d="M580 700l-520 -700h88l520 700h-88zM28 596l97 27v-349h70v427l-167 -38v-67zM611 206q45 0 79.5 13.5t54.5 37.5t20 56q0 46 -34 80t-95 34q-58 0 -94.5 -33.5t-36.5 -84.5h67q0 25 18.5 41.5t45.5 16.5q29 0 43 -15.5t14 -41.5q0 -18 -10 -33t-28 -24t-44 -9v-38z
M632 -7q65 0 105 33t40 87q0 42 -22.5 68t-59.5 38t-84 12v-40q29 0 50 -8.5t32.5 -24t11.5 -38.5q0 -31 -19.5 -48.5t-51.5 -17.5t-54 18t-22 48h-71q0 -34 17.5 -63.5t50.5 -46.5t77 -17z" />
    <glyph glyph-name="twothirds" unicode="&#x2154;" horiz-adv-x="932" 
d="M715 700l-520 -700h88l520 700h-88zM30 282h320v66h-182l119 117q26 25 42 53.5t16 60.5q0 30 -15 60.5t-45.5 50.5t-79.5 20q-47 0 -81.5 -20.5t-52.5 -55.5t-18 -80h70q0 42 22.5 67t58.5 25q23 0 38 -9.5t22.5 -24.5t7.5 -32q0 -25 -12.5 -47t-35.5 -46zM741 206
q44 0 78.5 13.5t54.5 37.5t20 56q0 46 -34 80t-95 34q-58 0 -94.5 -33.5t-36.5 -84.5h67q0 25 18.5 41.5t45.5 16.5q29 0 43.5 -15.5t14.5 -41.5q0 -18 -10 -33t-28.5 -24t-43.5 -9v-38zM762 -7q64 0 104 33t40 87q0 42 -22 68t-59 38t-84 12v-40q28 0 49 -8.5t33 -24
t12 -38.5q0 -31 -20 -48.5t-52 -17.5t-53.5 18t-21.5 48h-72q0 -34 18 -63.5t50.5 -46.5t77.5 -17z" />
    <glyph glyph-name="uni2155" unicode="&#x2155;" horiz-adv-x="792" 
d="M581 700l-520 -700h87l520 700h-87zM28 596l97 27v-349h70v427l-167 -38v-67zM764 135q0 42 -16.5 73.5t-45.5 49t-64 17.5q-28 0 -54.5 -10t-49.5 -34l-46 -44q32 20 58 26.5t53 6.5q37 0 63 -21t26 -60q0 -38 -23 -60t-66 -22q-29 0 -58 18t-48 43l-41 -52
q24 -30 61 -52.5t95 -22.5q41 0 76.5 15.5t57.5 48t22 80.5zM598 356h162v62h-216l-56 -231l77 52z" />
    <glyph glyph-name="uni2156" unicode="&#x2156;" horiz-adv-x="925" 
d="M715 700l-520 -700h88l520 700h-88zM30 282h320v66h-182l119 117q26 25 42 53.5t16 60.5q0 30 -15 60.5t-45.5 50.5t-79.5 20q-47 0 -81.5 -20.5t-52.5 -55.5t-18 -80h70q0 42 22.5 67t58.5 25q23 0 38 -9.5t22.5 -24.5t7.5 -32q0 -25 -12.5 -47t-35.5 -46zM894 135
q0 42 -17 73.5t-45.5 49t-63.5 17.5q-28 0 -55 -10t-49 -34l-46 -44q32 20 57.5 26.5t53.5 6.5q37 0 63 -21t26 -60q0 -38 -23.5 -60t-65.5 -22q-30 0 -59 18t-47 43l-42 -52q25 -30 62 -52.5t95 -22.5q41 0 76 15.5t57.5 48t22.5 80.5zM727 356h163v62h-216l-56 -231l77 52
z" />
    <glyph glyph-name="uni2157" unicode="&#x2157;" horiz-adv-x="871" 
d="M663 700l-520 -700h87l520 700h-87zM151 486q45 0 79.5 13.5t54.5 37.5t20 56q0 46 -34 80t-95 34q-58 0 -94.5 -33.5t-36.5 -84.5h67q0 25 18.5 41.5t45.5 16.5q29 0 43 -15.5t14 -41.5q0 -18 -9.5 -33t-28 -24t-44.5 -9v-38zM172 273q65 0 105 33t40 87q0 42 -22 68
t-59.5 38t-84.5 12v-40q29 0 50 -8.5t32.5 -24t11.5 -38.5q0 -31 -19.5 -48.5t-51.5 -17.5t-53.5 18t-21.5 48h-72q0 -34 17.5 -63.5t50.5 -46.5t77 -17zM839 135q0 42 -17 73.5t-45.5 49t-63.5 17.5q-28 0 -55 -10t-49 -34l-46 -44q32 20 57.5 26.5t53.5 6.5q37 0 63 -21
t26 -60q0 -38 -23.5 -60t-65.5 -22q-30 0 -59 18t-47 43l-42 -52q25 -30 62 -52.5t95 -22.5q41 0 76 15.5t57.5 48t22.5 80.5zM672 356h163v62h-216l-56 -231l77 52z" />
    <glyph glyph-name="uni2158" unicode="&#x2158;" horiz-adv-x="926" 
d="M708 700l-520 -700h87l520 700h-87zM27 360h346v62h-94l-10 -5h-184zM100 372l139 202v-186l-5 -6v-102h73v420h-43l-237 -340zM896 134q0 43 -16.5 74.5t-45.5 49t-64 17.5q-28 0 -54.5 -10t-49.5 -34l-46 -45q32 21 58 27.5t53 6.5q37 0 63 -21t26 -60q0 -38 -23 -60
t-66 -22q-29 0 -58 18t-48 42l-41 -51q24 -31 61 -53t95 -22q41 0 76.5 15.5t57.5 48t22 79.5zM730 356h162v62h-216l-56 -232l77 53z" />
    <glyph glyph-name="uni2159" unicode="&#x2159;" horiz-adv-x="789" 
d="M588 700l-520 -700h88l520 700h-88zM28 596l97 27v-349h70v427l-167 -38v-67zM525 140q0 26 10.5 46t30 31t43.5 11q25 0 44 -11t30 -31t11 -46q0 -39 -24 -63t-61 -24q-36 0 -60 24t-24 63zM624 417l-133 -178q-15 -20 -25.5 -45t-10.5 -54q0 -46 20.5 -80t56 -51.5
t77.5 -17.5q44 0 78.5 17.5t55.5 51.5t21 80q0 40 -18 70.5t-47 48t-62 17.5q-21 0 -36.5 -4.5t-29.5 -20.5l10 2l133 164h-90z" />
    <glyph glyph-name="uni215A" unicode="&#x215a;" horiz-adv-x="886" 
d="M693 700l-520 -700h87l520 700h-87zM343 415q0 42 -17 73.5t-45.5 49t-63.5 17.5q-29 0 -55.5 -10t-48.5 -34l-47 -44q32 20 58 26.5t54 6.5q37 0 63 -21t26 -60q0 -38 -23.5 -60t-65.5 -22q-30 0 -59 18t-47 43l-42 -52q25 -30 62 -52.5t95 -22.5q41 0 76 15.5t57.5 48
t22.5 80.5zM176 636h163v62h-216l-57 -231l77 52zM622 140q0 26 11 46t30 31t43 11q25 0 44 -11t30 -31t11 -46q0 -39 -24 -63t-61 -24q-36 0 -60 24t-24 63zM721 417l-133 -178q-15 -20 -25.5 -45t-10.5 -54q0 -46 20.5 -80t56 -51.5t77.5 -17.5q44 0 78.5 17.5t55.5 51.5
t21 80q0 40 -18 70.5t-47 48t-62 17.5q-21 0 -36.5 -4.5t-29.5 -20.5l10 2l133 164h-90z" />
    <glyph glyph-name="oneeighth" unicode="&#x215b;" horiz-adv-x="813" 
d="M588 700l-520 -700h88l520 700h-88zM28 596l97 27v-349h70v427l-167 -38v-67zM514 319q0 -34 17.5 -58.5t46.5 -37.5t63 -13q35 0 63.5 13t45.5 37.5t17 58.5q0 32 -16.5 56.5t-45.5 38.5t-64 14t-63.5 -14t-46 -38.5t-17.5 -56.5zM582 312q0 26 16.5 42.5t42.5 16.5
t42.5 -16.5t16.5 -42.5q0 -18 -8 -31.5t-21.5 -21t-29.5 -7.5t-29.5 7.5t-21.5 21t-8 31.5zM499 114q0 -34 19 -62t51.5 -43.5t71.5 -15.5t71 15.5t51 43.5t19 62q0 31 -12 54t-32.5 37.5t-45.5 22.5t-51 8t-51 -8t-45.5 -22.5t-33 -37.5t-12.5 -54zM569 124q0 20 10.5 36
t26.5 25t35 9t35 -9t26 -25t10 -36q0 -35 -21.5 -53t-49.5 -18t-50 18t-22 53z" />
    <glyph glyph-name="threeeighths" unicode="&#x215c;" horiz-adv-x="890" 
d="M665 700l-520 -700h88l520 700h-88zM151 486q45 0 79.5 13.5t54.5 37.5t20 56q0 46 -34 80t-95 34q-58 0 -94.5 -33.5t-36.5 -84.5h67q0 25 18.5 41.5t45.5 16.5q29 0 43 -15.5t14 -41.5q0 -18 -9.5 -33t-28 -24t-44.5 -9v-38zM172 273q65 0 105 33t40 87q0 42 -22 68
t-59.5 38t-84.5 12v-40q29 0 50 -8.5t32.5 -24t11.5 -38.5q0 -31 -19.5 -48.5t-51.5 -17.5t-53.5 18t-21.5 48h-72q0 -34 17.5 -63.5t50.5 -46.5t77 -17zM591 319q0 -34 17.5 -58.5t46.5 -37.5t63 -13q35 0 63.5 13t45.5 37.5t17 58.5q0 32 -16.5 56.5t-45.5 38.5t-64 14
t-63.5 -14t-46 -38.5t-17.5 -56.5zM659 312q0 26 16.5 42.5t42.5 16.5t42.5 -16.5t16.5 -42.5q0 -18 -8 -31.5t-21.5 -21t-29.5 -7.5t-29.5 7.5t-21.5 21t-8 31.5zM576 114q0 -34 19 -62t51.5 -43.5t71.5 -15.5t71 15.5t51 43.5t19 62q0 31 -12 54t-32.5 37.5t-45.5 22.5
t-51 8t-51 -8t-45.5 -22.5t-33 -37.5t-12.5 -54zM646 124q0 20 10.5 36t26.5 25t35 9t35 -9t26 -25t10 -36q0 -35 -21.5 -53t-49.5 -18t-50 18t-22 53z" />
    <glyph glyph-name="fiveeighths" unicode="&#x215d;" horiz-adv-x="917" 
d="M693 700l-520 -700h87l520 700h-87zM340 415q0 42 -16.5 73.5t-45.5 49t-64 17.5q-28 0 -55 -10t-49 -34l-46 -44q32 20 57.5 26.5t53.5 6.5q37 0 63 -21t26 -60q0 -38 -23.5 -60t-65.5 -22q-29 0 -58 18t-48 43l-41 -52q24 -30 61 -52.5t95 -22.5q41 0 76.5 15.5
t57.5 48t22 80.5zM173 636h163v62h-216l-56 -231l77 52zM619 319q0 -34 17 -58.5t46 -37.5t63 -13q35 0 64 13t46 37.5t17 58.5q0 32 -17 56.5t-45.5 38.5t-64.5 14q-35 0 -63.5 -14t-45.5 -38.5t-17 -56.5zM687 312q0 26 16.5 42.5t41.5 16.5q26 0 42.5 -16.5t16.5 -42.5
q0 -18 -7.5 -31.5t-21 -21t-30.5 -7.5q-16 0 -29 7.5t-21 21t-8 31.5zM604 114q0 -34 19 -62t51.5 -43.5t70.5 -15.5q40 0 72 15.5t51 43.5t19 62q0 31 -12 54t-32.5 37.5t-46 22.5t-51.5 8t-51 -8t-45.5 -22.5t-32.5 -37.5t-12 -54zM674 124q0 20 10 36t26.5 25t34.5 9
q19 0 35 -9t26.5 -25t10.5 -36q0 -35 -21.5 -53t-50.5 -18q-27 0 -49 18t-22 53z" />
    <glyph glyph-name="seveneighths" unicode="&#x215e;" horiz-adv-x="807" 
d="M580 700l-520 -700h88l520 700h-88zM27 633h209l-172 -353h75l202 420h-314v-67zM509 319q0 -34 17 -58.5t46 -37.5t63 -13q35 0 64 13t46 37.5t17 58.5q0 32 -17 56.5t-45.5 38.5t-64.5 14q-35 0 -63.5 -14t-45.5 -38.5t-17 -56.5zM577 312q0 26 16.5 42.5t41.5 16.5
q26 0 42.5 -16.5t16.5 -42.5q0 -18 -7.5 -31.5t-21 -21t-30.5 -7.5q-16 0 -29 7.5t-21 21t-8 31.5zM494 114q0 -34 19 -62t51.5 -43.5t70.5 -15.5q40 0 72 15.5t51 43.5t19 62q0 31 -12 54t-32.5 37.5t-46 22.5t-51.5 8t-51 -8t-45.5 -22.5t-32.5 -37.5t-12 -54zM564 124
q0 20 10 36t26.5 25t34.5 9q19 0 35 -9t26.5 -25t10.5 -36q0 -35 -21.5 -53t-50.5 -18q-27 0 -49 18t-22 53z" />
    <glyph glyph-name="partialdiff" unicode="&#x2202;" horiz-adv-x="574" 
d="M286 -12q73 0 129 32t88 88t32 128q0 42 -11.5 86.5t-36 91.5t-62 98.5t-88.5 108.5t-115 118l-74 -63q46 -39 85 -76.5t70.5 -75t58 -76t46.5 -78.5l44 -1q-99 95 -205 95q-61 0 -107.5 -29.5t-73.5 -80.5t-27 -118q0 -72 31.5 -128t87.5 -88t128 -32zM287 87
q-40 0 -71 18.5t-48.5 51t-17.5 73.5q0 42 18 75t49 51.5t70 18.5t70 -18.5t49 -51.5t18 -75q0 -41 -17.5 -73.5t-48.5 -51t-71 -18.5z" />
    <glyph glyph-name="emptyset" unicode="&#x2205;" 
d="M299 26q60 0 109.5 29t78.5 78t29 109t-29 109t-78.5 78.5t-108.5 29.5q-60 0 -109 -29.5t-78.5 -78.5t-29.5 -109q0 -59 29.5 -108.5t78.5 -78.5t108 -29zM300 103q-39 0 -70.5 18.5t-50.5 50.5t-19 70q0 39 19 70.5t50.5 50.5t70.5 19q38 0 70 -19t51 -50.5t19 -70.5
q0 -36 -19 -68t-50.5 -51.5t-70.5 -19.5zM127 27l390 388l-44 43l-390 -388z" />
    <glyph glyph-name="product" unicode="&#x220f;" 
d="M147 0h98v611h110v-611h98v611h82v89h-469v-89h81v-611z" />
    <glyph glyph-name="summation" unicode="&#x2211;" 
d="M100 0h400v93h-249l124 259l-124 255h249v93h-400l170 -348z" />
    <glyph glyph-name="minus" unicode="&#x2212;" horiz-adv-x="591" 
d="M65 189h461v97h-461v-97z" />
    <glyph glyph-name="uni2215" unicode="&#x2215;" horiz-adv-x="553" 
d="M431 700l-416 -850h109l414 850h-107z" />
    <glyph glyph-name="uni2219" unicode="&#x2219;" horiz-adv-x="309" 
d="M84 426q0 -28 20.5 -49t50.5 -21t50 21t20 49q0 29 -20 49.5t-50 20.5t-50.5 -20.5t-20.5 -49.5z" />
    <glyph glyph-name="radical" unicode="&#x221a;" 
d="M244 -198l-138 402l81 -31l-129 -34l-22 75l143 41l83 -286l-51 29l137 702h163v-91h-162l85 67z" />
    <glyph glyph-name="infinity" unicode="&#x221e;" horiz-adv-x="773" 
d="M198 41q93 0 189 120q48 -60 94.5 -90t93.5 -30t87 26.5t64.5 69.5t24.5 93q0 51 -24.5 93.5t-64.5 68.5t-87 26q-93 0 -188 -120q-95 120 -189 120q-47 0 -87 -26t-64.5 -68.5t-24.5 -93.5q0 -50 24.5 -93.5t64.5 -69.5t87 -26zM213 133q-23 0 -43.5 14t-33 36t-12.5 47
q0 26 12.5 47.5t33 35t43.5 13.5q31 0 62.5 -25t59.5 -71q-29 -47 -60 -72t-62 -25zM561 133q-31 0 -62.5 25.5t-59.5 71.5q28 47 59.5 71.5t62.5 24.5q23 0 43 -13.5t32.5 -35t12.5 -47.5q0 -25 -12.5 -47t-32.5 -36t-43 -14z" />
    <glyph glyph-name="integral" unicode="&#x222b;" 
d="M200 -200q41 -1 73 19t51 57t22 88l36 645q2 39 15 60.5t35 21.5q9 0 19 -5.5t25 -20.5l49 80q-29 26 -53 36t-51 11q-62 1 -101.5 -43.5t-44.5 -121.5l-36 -645q-2 -38 -15 -59.5t-35 -21.5q-10 0 -19.5 5.5t-25.5 19.5l-49 -80q30 -24 54.5 -34.5t50.5 -11.5z" />
    <glyph glyph-name="approxequal" unicode="&#x2248;" 
d="M399 352q-27 0 -57 12.5t-64 36.5q-26 18 -46 26.5t-41 8.5q-31 0 -42.5 -21.5t-0.5 -55.5l-92 5q-12 39 4.5 75t51.5 59.5t80 23.5q29 0 60.5 -12t65.5 -36q24 -17 42.5 -25t32.5 -8q24 0 33 22t-3 53l96 -5q10 -41 -4 -77.5t-44.5 -59t-71.5 -22.5zM399 102
q-27 0 -57 12.5t-64 36.5q-26 18 -46 26.5t-41 8.5q-31 0 -42.5 -21.5t-0.5 -55.5l-92 5q-12 39 4.5 75t51.5 59.5t80 23.5q29 0 60.5 -12t65.5 -36q24 -17 42.5 -25t32.5 -8q24 0 33 22t-3 53l96 -5q10 -41 -4 -77.5t-44.5 -59t-71.5 -22.5z" />
    <glyph glyph-name="notequal" unicode="&#x2260;" 
d="M234 19l-88 43l240 452l87 -42zM61 125v98h497v-98h-497zM61 298v97h497v-97h-497z" />
    <glyph glyph-name="lessequal" unicode="&#x2264;" 
d="M46 3v100h512v-100h-512zM556 134l-510 217v68l510 217v-107l-344 -140l344 -148v-107z" />
    <glyph glyph-name="greaterequal" unicode="&#x2265;" 
d="M65 3v100h511v-100h-511zM65 134v107l345 140l-345 148v107l510 -217v-68z" />
    <glyph glyph-name="lozenge" unicode="&#x25ca;" 
d="M306 15l-206 341l206 340l194 -340zM303 200l90 156l-90 156l-95 -156z" />
    <glyph glyph-name="uniFF10" unicode="&#xff10;" 
d="M144 350q0 56 10.5 103t31.5 81t49.5 52.5t64.5 18.5t64.5 -18.5t49 -52.5t31.5 -81t11 -103t-11 -103t-31.5 -81t-49 -52.5t-64.5 -18.5t-64.5 18.5t-49.5 52.5t-31.5 81t-10.5 103zM27 350q0 -109 34.5 -190t96 -126t142.5 -45q82 0 143 45t95 126t34 190t-34 190
t-95 126t-143 45q-81 0 -142.5 -45t-96 -126t-34.5 -190z" />
    <glyph glyph-name="uniFF11" unicode="&#xff11;" 
d="M113 536l162 45v-581h116v711l-278 -63v-112z" />
    <glyph glyph-name="uniFF12" unicode="&#xff12;" 
d="M21 0h534v110h-304l199 195q43 40 69.5 87.5t26.5 102.5q0 37 -14 75.5t-42.5 70.5t-72.5 51.5t-105 19.5q-79 0 -136 -33.5t-87.5 -92t-30.5 -133.5h117q0 46 17.5 81t47.5 53.5t70 18.5q29 0 50.5 -9.5t35.5 -25.5t21 -35.5t7 -39.5q0 -28 -9.5 -53t-27.5 -50t-43 -52z
" />
    <glyph glyph-name="uniFF13" unicode="&#xff13;" 
d="M271 343q75 0 132 22t90.5 63t33.5 94q0 52 -25.5 94.5t-74 68.5t-115.5 26q-64 0 -113 -25.5t-76.5 -69.5t-27.5 -102h111q0 42 30.5 69.5t75.5 27.5q32 0 53 -12t32 -33.5t11 -49.5q0 -22 -9.5 -42t-27 -35.5t-43 -24t-57.5 -8.5v-63zM306 -12q73 0 126.5 25t84 70
t30.5 105q0 52 -21 89.5t-59 61.5t-87.5 35t-108.5 11v-67q36 0 64.5 -8t49 -23t32 -37t11.5 -50q0 -35 -15 -59.5t-41.5 -37.5t-62.5 -13t-64.5 13.5t-45 38.5t-16.5 58h-118q0 -43 17 -81.5t48 -68t75.5 -46t100.5 -16.5z" />
    <glyph glyph-name="uniFF14" unicode="&#xff14;" 
d="M16 134h559v102h-152l-17 -8h-293zM133 154l223 335v-308l-7 -11v-170h121v700h-71l-383 -566z" />
    <glyph glyph-name="uniFF15" unicode="&#xff15;" 
d="M556 228q0 71 -28.5 123t-76.5 81t-106 29q-48 0 -92.5 -16.5t-80.5 -56.5l-78 -73q36 22 66.5 34t60 16.5t60.5 4.5q40 0 74 -16t54 -46t20 -73q0 -42 -17.5 -72.5t-50.5 -47t-80 -16.5q-34 0 -67 13.5t-61 36t-49 50.5l-70 -86q27 -33 63 -61.5t85.5 -45.5t113.5 -17
q51 0 97 14.5t83 44t58.5 74.5t21.5 106zM278 596h271v104h-360l-95 -385l129 87z" />
    <glyph glyph-name="uniFF16" unicode="&#xff16;" 
d="M159 236q0 43 18.5 76.5t50.5 52t72 18.5t72 -18.5t50.5 -52t18.5 -76.5t-18.5 -75t-50.5 -50.5t-72 -18.5t-72 18.5t-50.5 50.5t-18.5 75zM324 699l-222 -298q-26 -33 -42.5 -74.5t-16.5 -90.5q0 -77 34.5 -133t92.5 -85.5t130 -29.5t130 29.5t92.5 85.5t34.5 133
q0 50 -17.5 92t-47 72.5t-67.5 47t-79 16.5q-36 0 -62 -8.5t-49 -34.5l17 3l222 275h-150z" />
    <glyph glyph-name="uniFF17" unicode="&#xff17;" 
d="M50 589h347l-287 -589h126l337 700h-523v-111z" />
    <glyph glyph-name="uniFF18" unicode="&#xff18;" 
d="M95 531q0 -44 16.5 -77.5t45.5 -56.5t67 -35t81 -12t81 12t67 35t46 56.5t17 77.5q0 54 -28.5 94.5t-76 64t-106.5 23.5t-106.5 -23.5t-75.5 -64t-28 -94.5zM207 519q0 29 12.5 52t35 35.5t50.5 12.5q29 0 51 -12.5t34.5 -35.5t12.5 -52q0 -30 -13 -52t-35.5 -34.5
t-49.5 -12.5t-49 12.5t-35.5 34.5t-13.5 52zM70 190q0 -44 18 -80.5t50.5 -64t75 -42.5t91.5 -15t91.5 15t75 42.5t51 64t18.5 80.5q0 51 -20.5 89t-54.5 63.5t-76 38t-85 12.5t-85 -12.5t-76 -38t-54 -63.5t-20 -89zM186 206q0 33 16.5 60t44 42.5t58.5 15.5t58.5 -15.5
t44.5 -42.5t17 -60q0 -38 -17 -64t-44.5 -40t-58.5 -14t-58.5 14t-44 40t-16.5 64z" />
    <glyph glyph-name="uniFF19" unicode="&#xff19;" 
d="M441 464q0 -43 -18.5 -76t-50.5 -52t-72 -19t-72 19t-50.5 52t-18.5 76t18.5 75.5t50.5 51t72 18.5t72 -18.5t50.5 -51t18.5 -75.5zM275 1l223 298q25 34 42 75t17 90q0 78 -34.5 133.5t-92.5 85.5t-130 30t-130 -30t-92.5 -85.5t-34.5 -133.5q0 -50 17 -92t47 -72.5
t67.5 -46.5t79.5 -16q35 0 61.5 8t49.5 34l-18 -3l-222 -275h150z" />
    <glyph glyph-name="a.alt" horiz-adv-x="589" 
d="M419 460v-460h105v460h-105zM34 230q0 -75 31 -129t82.5 -82.5t110.5 -28.5q58 0 101.5 29t69 83t25.5 128q0 75 -25.5 128.5t-69 82.5t-101.5 29q-59 0 -110.5 -28.5t-82.5 -82t-31 -129.5zM146 230q0 46 19 79t50.5 50t68.5 17q32 0 62 -17t49.5 -49.5t19.5 -79.5
t-19.5 -79.5t-49.5 -49.5t-62 -17q-37 0 -68.5 17t-50.5 50t-19 79z" />
    <glyph glyph-name="agrave.alt" horiz-adv-x="589" 
d="M419 460v-460h105v460h-105zM34 230q0 -75 31 -129t82.5 -82.5t110.5 -28.5q58 0 101.5 29t69 83t25.5 128q0 75 -25.5 128.5t-69 82.5t-101.5 29q-59 0 -110.5 -28.5t-82.5 -82t-31 -129.5zM146 230q0 46 19 79t50.5 50t68.5 17q32 0 62 -17t49.5 -49.5t19.5 -79.5
t-19.5 -79.5t-49.5 -49.5t-62 -17q-37 0 -68.5 17t-50.5 50t-19 79zM121 680l180 -150l61 35l-150 160z" />
    <glyph glyph-name="aacute.alt" horiz-adv-x="589" 
d="M419 460v-460h105v460h-105zM34 230q0 -75 31 -129t82.5 -82.5t110.5 -28.5q58 0 101.5 29t69 83t25.5 128q0 75 -25.5 128.5t-69 82.5t-101.5 29q-59 0 -110.5 -28.5t-82.5 -82t-31 -129.5zM146 230q0 46 19 79t50.5 50t68.5 17q32 0 62 -17t49.5 -49.5t19.5 -79.5
t-19.5 -79.5t-49.5 -49.5t-62 -17q-37 0 -68.5 17t-50.5 50t-19 79zM416 680l-92 45l-150 -160l62 -35z" />
    <glyph glyph-name="acircumflex.alt" horiz-adv-x="589" 
d="M419 460v-460h105v460h-105zM34 230q0 -75 31 -129t82.5 -82.5t110.5 -28.5q58 0 101.5 29t69 83t25.5 128q0 75 -25.5 128.5t-69 82.5t-101.5 29q-59 0 -110.5 -28.5t-82.5 -82t-31 -129.5zM146 230q0 46 19 79t50.5 50t68.5 17q32 0 62 -17t49.5 -49.5t19.5 -79.5
t-19.5 -79.5t-49.5 -49.5t-62 -17q-37 0 -68.5 17t-50.5 50t-19 79zM296 622l102 -92l73 53l-175 140l-175 -140l72 -53z" />
    <glyph glyph-name="atilde.alt" horiz-adv-x="589" 
d="M419 460v-460h105v460h-105zM34 230q0 -75 31 -129t82.5 -82.5t110.5 -28.5q58 0 101.5 29t69 83t25.5 128q0 75 -25.5 128.5t-69 82.5t-101.5 29q-59 0 -110.5 -28.5t-82.5 -82t-31 -129.5zM146 230q0 46 19 79t50.5 50t68.5 17q32 0 62 -17t49.5 -49.5t19.5 -79.5
t-19.5 -79.5t-49.5 -49.5t-62 -17q-37 0 -68.5 17t-50.5 50t-19 79zM121 579l60 -47q0 8 4 20t14.5 21.5t30.5 9.5q24 0 42 -12.5t38.5 -25t47.5 -12.5q28 0 51.5 12t41 30t25.5 36l-56 56q-15 -24 -29.5 -37t-30.5 -13q-21 0 -34.5 7.5t-26 17t-28.5 17t-40 7.5
q-26 0 -49.5 -12t-39.5 -31t-21 -44z" />
    <glyph glyph-name="adieresis.alt" horiz-adv-x="589" 
d="M419 460v-460h105v460h-105zM34 230q0 -75 31 -129t82.5 -82.5t110.5 -28.5q58 0 101.5 29t69 83t25.5 128q0 75 -25.5 128.5t-69 82.5t-101.5 29q-59 0 -110.5 -28.5t-82.5 -82t-31 -129.5zM146 230q0 46 19 79t50.5 50t68.5 17q32 0 62 -17t49.5 -49.5t19.5 -79.5
t-19.5 -79.5t-49.5 -49.5t-62 -17q-37 0 -68.5 17t-50.5 50t-19 79zM334 596q0 -27 20 -46.5t48 -19.5t48 19.5t20 46.5q0 28 -20 47t-48 19t-48 -19t-20 -47zM116 596q0 -27 20.5 -46.5t47.5 -19.5q29 0 49 19.5t20 46.5q0 28 -20 47t-49 19q-27 0 -47.5 -19t-20.5 -47z
" />
    <glyph glyph-name="aring.alt" horiz-adv-x="589" 
d="M419 460v-460h105v460h-105zM34 230q0 -75 31 -129t82.5 -82.5t110.5 -28.5q58 0 101.5 29t69 83t25.5 128q0 75 -25.5 128.5t-69 82.5t-101.5 29q-59 0 -110.5 -28.5t-82.5 -82t-31 -129.5zM146 230q0 46 19 79t50.5 50t68.5 17q31 0 61.5 -17t50 -49.5t19.5 -79.5
t-19.5 -79.5t-50 -49.5t-61.5 -17q-37 0 -68.5 17t-50.5 50t-19 79zM182 637q0 -48 33.5 -77.5t77.5 -29.5t77.5 29.5t33.5 77.5q0 47 -33.5 76.5t-77.5 29.5t-77.5 -29.5t-33.5 -76.5zM244 637q0 24 15 37.5t34 13.5t34 -13.5t15 -37.5t-15 -37.5t-34 -13.5t-34 13.5
t-15 37.5z" />
    <glyph glyph-name="amacron.alt" horiz-adv-x="589" 
d="M419 460v-460h105v460h-105zM34 230q0 -75 31 -129t82.5 -82.5t110.5 -28.5q58 0 101.5 29t69 83t25.5 128q0 75 -25.5 128.5t-69 82.5t-101.5 29q-59 0 -110.5 -28.5t-82.5 -82t-31 -129.5zM146 230q0 46 19 79t50.5 50t68.5 17q32 0 62 -17t49.5 -49.5t19.5 -79.5
t-19.5 -79.5t-49.5 -49.5t-62 -17q-37 0 -68.5 17t-50.5 50t-19 79zM109 530h359v98h-359v-98z" />
    <glyph glyph-name="abreve.alt" horiz-adv-x="589" 
d="M419 460v-460h105v460h-105zM34 230q0 -75 31 -129t82.5 -82.5t110.5 -28.5q58 0 101.5 29t69 83t25.5 128q0 75 -25.5 128.5t-69 82.5t-101.5 29q-59 0 -110.5 -28.5t-82.5 -82t-31 -129.5zM146 230q0 46 19 79t50.5 50t68.5 17q32 0 62 -17t49.5 -49.5t19.5 -79.5
t-19.5 -79.5t-49.5 -49.5t-62 -17q-37 0 -68.5 17t-50.5 50t-19 79zM118 673q0 -37 18 -69.5t54 -53t88 -20.5q53 0 88.5 20.5t54 53t18.5 69.5h-83q0 -15 -7.5 -31t-24.5 -27t-46 -11t-46 11t-24.5 27t-7.5 31h-82z" />
    <glyph glyph-name="aogonek.alt" horiz-adv-x="589" 
d="M419 460v-460h105v460h-105zM34 230q0 -75 31 -129t82.5 -82.5t110.5 -28.5q58 0 101.5 29t69 83t25.5 128q0 75 -25.5 128.5t-69 82.5t-101.5 29q-59 0 -110.5 -28.5t-82.5 -82t-31 -129.5zM146 230q0 46 19 79t50.5 50t68.5 17q32 0 62 -17t49.5 -49.5t19.5 -79.5
t-19.5 -79.5t-49.5 -49.5t-62 -17q-37 0 -68.5 17t-50.5 50t-19 79zM516 -122q-10 -10 -21 -15t-29 -5q-20 0 -31.5 10.5t-11.5 34.5q0 17 11.5 34.5t31 34t45.5 28.5l-41 25q-35 -18 -65.5 -40t-49.5 -48t-19 -57q0 -30 14.5 -53t41 -35t64.5 -12q36 0 59 12.5t34 27.5z
" />
    </font>
</defs>
</svg>
